Welcome Guest ( Log In | Register )

Объявления

* gmail.com упорно продолжает считать почту с нас "unsolicited" и отбивает в том числе и письма активации, поэтому просьба использовать альтернативные почтовые ящики.
------------
* gmail.com continues reject all mail from us as "unsolicited" (activation mails too) therefore please use alternate mail servers.
> Damnatio Aeterna - Humana Fragilitas [ep] (2017), Depressive Black Metal
post Apr 17 2024, 15:09:15
Post #1

Два Литра
**
Group: Дух
Posts: 133
Releases: 129
From: Новосибирск
On Forums: 4 years 4 months
Thanks: 757 time(s)
Russian Federation


(IMG:https://metalarea.org/images/audiocovers/2024_Apr/acov_tid395769_thumb.jpg)

*Artist: Damnatio Aeterna
*Album: Humana Fragilitas [ep]
*Year: 2017
*Genre: Depressive Black Metal
*Country: Italy (IMG:https://metalarea.org/forum/style_images/flags/Italy.png)
*Format: mp3@CBR320kbps
*Size: 64MB

Tracklist:
01. Intro 03:13
02. God Is Dead 09:31
03. Eternal Twilight 06:24
04. Ghost Of A Forgotten Love 07:23
05. Outro 01:57
******************************
Total playing time: 28:29

Technical info
(IMG:https://metalarea.org/images/spectrogram/2024_Apr/6f4520c21fe850406db4af87a30baae2.png)
Input File: 03. Eternal Twilight.mp3
Channels : 2
Sample Rate : 44100
Precision : 16-bit
Duration : 00:06:24.07 = 16937619 samples = 28805.5 CDDA sectors
File Size : 15.4M
Bit Rate : 321k
Sample Encoding: MPEG audio (layer I, II or III)
Comments :
Title=Eternal Twilight
Artist=Damnatio Aeterna
Album=Humana Fragilitas (EP)
Tracknumber=03
Year=2017
Genre=Depressive Black Metal



Register


Go to the top of the page
  Insert nick Quick quote
+Quote Post
 
Start new topic
Replies (1 - 1)
post May 14 2024, 12:18:56
Post #2

Мегаманьяк
***********
Group: Металариец
Posts: 1,639
Releases: 25
From: Spain
On Forums: 16 years 9 months
Thanks: 1417 time(s)
Spain


https://www.youtube.com/watch?v=m5Ke-RORvsw
Go to the top of the page
  Insert nick Quick quote
+Quote Post

Reply to this topicStart new topic
2 User(s) are reading this topic (2 Guests and 0 Anonymous Users)
0 Members:

 



- Lo-Fi Version Support form
Copyrights and abuse reports form
Time is now: 21st June 2024 - 08:40:59