Welcome Guest ( Log In | Register )

Объявления

* gmail.com упорно продолжает считать почту с нас "unsolicited" и отбивает в том числе и письма активации, поэтому просьба использовать альтернативные почтовые ящики.
------------
* gmail.com continues reject all mail from us as "unsolicited" (activation mails too) therefore please use alternate mail servers.

> Releases Upload / Добавление релизов

Добавить релиз тут / Click here to add release
Рекомендованные обменники / Recommended file shares

> Dvne - Voidkind (2024), Progressive Sludge/Post-Metal (D4)
post Apr 18 2024, 14:13:42
Post #1

Serial Uploader
Group Icon
Group: V.I.P
Posts: 42,566
Releases: 40632
From: Lithuania
On Forums: 15 years 11 months
Thanks: 520825 time(s)
Lithuania


(IMG:https://metalarea.org/images/audiocovers/2024_Apr/acov_tid395826_thumb.jpg)

*Artist: Dvne
*Album: Voidkind
*Year: 2024
*Genre: Progressive Sludge/Post-Metal
*Country: United Kingdom (IMG:https://metalarea.org/forum/style_images/flags/United%20Kingdom.png)
*Format: mp3@CBR320kbps
*Size: 135MB

Tracklist:
1. Summa Blasphemia 05:28
2. Eleonora 08:48
3. Reaching for Telos 05:22
4. Reliquary 07:46
5. Path of Dust 01:28
6. Sarmatæ 04:29
7. Path of Ether 01:29
8. Abode of the Perfect Soul 07:28
9. Plērōma 06:00
10. Cobalt Sun Necropolis 09:57
******************************
Total playing time: 58:15


Preview 2

(IMG:https://metalarea.org/images/youtube.png)

Technical info
(IMG:https://metalarea.org/images/spectrogram/2024_Apr/f2d9060c52a9ddab22744a8c6e0cd1d9.png)
Input File: 02. Eleonora.mp3
Channels : 2
Sample Rate : 44100
Precision : 16-bit
Duration : 00:08:48.12 = 23290224 samples = 39609.2 CDDA sectors
File Size : 21.3M
Bit Rate : 323k
Sample Encoding: MPEG audio (layer I, II or III)
Comments :
Title=Eleonora
Artist=Dvne
Album=Voidkind
Tracknumber=2/10
Year=2024
Discnumber=1/1



Register


Go to the top of the page
  Insert nick Quick quote
+Quote Post
 
Start new topic
Replies (1 - 4)
post Apr 18 2024, 22:17:07
Post #2

Русский
********
Group: Металариец
Posts: 835
Releases: 0
From: Москва
On Forums: 17 years 8 months
Thanks: 261 time(s)
Russian Federation


отлично
Go to the top of the page
  Insert nick Quick quote
+Quote Post
post Apr 28 2024, 17:12:41
Post #3

Шесть Литров
******
Group: Металариец
Posts: 525
Releases: 0
From: TheМля
On Forums: 17 years 7 months
Thanks: 182 time(s)
Belarus


От чего отлично... но вот просто-скучно.


Thanks:
(1) Shadowman,
Go to the top of the page
  Insert nick Quick quote
+Quote Post
post May 15 2024, 15:31:45
Post #4

Четыре Литра
****
Group: Металариец
Posts: 357
Releases: 0
From: Zürich
On Forums: 2 years 11 months
Thanks: 193 time(s)
Switzerland


Почти час длительности это явно слишком много для такой сложной музыки, в которой при этом почти полностью отсутствуют яркие места. Оставил только Plērōma, как наиболее простой и цепляющий трек альбома.

Go to the top of the page
  Insert nick Quick quote
+Quote Post
post May 15 2024, 16:21:39
Post #5

Русский
********
Group: Металариец
Posts: 835
Releases: 0
From: Москва
On Forums: 17 years 8 months
Thanks: 261 time(s)
Russian Federation


ЦИТАТА(dimpa @ Apr 28 2024, 19:12:41) *
От чего отлично... но вот просто-скучно.



да где то я ошибся
Go to the top of the page
  Insert nick Quick quote
+Quote Post

Reply to this topicStart new topic
2 User(s) are reading this topic (2 Guests and 0 Anonymous Users)
0 Members:

 



- Lo-Fi Version Support form
Copyrights and abuse reports form
Time is now: 22nd May 2024 - 08:50:56