Welcome Guest ( Log In | Register )

Объявления

* gmail.com упорно продолжает считать почту с нас "unsolicited" и отбивает в том числе и письма активации, поэтому просьба использовать альтернативные почтовые ящики.
------------
* gmail.com continues reject all mail from us as "unsolicited" (activation mails too) therefore please use alternate mail servers.
> Torturation - Pearly Penile Papule [ep] (2021), Brutal Death Metal
post Apr 18 2024, 20:46:04
Post #1

Два Литра
**
Group: Дух
Posts: 133
Releases: 129
From: Новосибирск
On Forums: 4 years 4 months
Thanks: 757 time(s)
Russian Federation


(IMG:https://metalarea.org/images/audiocovers/2024_Apr/acov_tid395853_thumb.jpg)

*Artist: Torturation
*Album: Pearly Penile Papule [ep]
*Year: 2021
*Genre: Brutal Death Metal
*Country: Thailand (IMG:https://metalarea.org/forum/style_images/flags/Thailand.png)
*Format: mp3@CBR320kbps
*Size: 57MB

Tracklist:
01. Pearly Penile Papule 02:04
02. Molluscum Contagiosum 02:06
03. Angiokeratomas Of Fordyce 02:40
04. Lymphogranuloma Venereum 03:55
05. Treponema Pallidum (Single 2021) 02:27
06. Slow Slicing (Demo 2020) 04:48
07. Lingering Death (Demo 2020) 03:45
08. Death By Thousand Cuts (Demo 2020) 02:36
******************************
Total playing time: 24:24

Technical info
(IMG:https://metalarea.org/images/spectrogram/2024_Apr/e95f83e1f25d3c6e3caa90375e0e4ee6.png)
Input File: 04. Lymphogranuloma Venereum.mp3
Channels : 2
Sample Rate : 44100
Precision : 16-bit
Duration : 00:04:01.54 = 10651738 samples = 18115.2 CDDA sectors
File Size : 9.66M
Bit Rate : 320k
Sample Encoding: MPEG audio (layer I, II or III)
Comments :
Title=Lymphogranuloma Venereum
Artist=Torturation
Album=Pearly Penile Papule (EP)
Tracknumber=04
Year=2021
Genre=Brutal Death Metal



Register


Go to the top of the page
  Insert nick Quick quote
+Quote Post
 
Start new topic
Replies (1 - 1)
post Jun 9 2024, 02:09:43
Post #2

मृत्यु
**************
Group: Металариец
Posts: 3,610
Releases: 24
On Forums: 13 years 11 months
Thanks: 2362 time(s)
Antarctica


Go to the top of the page
  Insert nick Quick quote
+Quote Post

Reply to this topicStart new topic
2 User(s) are reading this topic (2 Guests and 0 Anonymous Users)
0 Members:

 



- Lo-Fi Version Support form
Copyrights and abuse reports form
Time is now: 21st June 2024 - 07:27:10