Welcome Guest ( Log In | Register )

Объявления

* gmail.com упорно продолжает считать почту с нас "unsolicited" и отбивает в том числе и письма активации, поэтому просьба использовать альтернативные почтовые ящики.
------------
* gmail.com continues reject all mail from us as "unsolicited" (activation mails too) therefore please use alternate mail servers.
 
Reply to this topicStart new topic
> Collapsing Decay - Dominion Surge Ov Fallen Angel [demo] (2019), Blackened Death Metal
post Apr 18 2024, 21:29:27
Post #1

Два Литра
**
Group: Дух
Posts: 133
Releases: 129
From: Новосибирск
On Forums: 4 years 4 months
Thanks: 757 time(s)
Russian Federation


(IMG:https://metalarea.org/images/audiocovers/2024_Apr/acov_tid395854_thumb.jpg)

*Artist: Collapsing Decay
*Album: Dominion Surge Ov Fallen Angel [demo]
*Year: 2019
*Genre: Blackened Death Metal
*Country: Myanmar (IMG:https://metalarea.org/forum/style_images/flags/Myanmar.png)
*Format: mp3@CBR192kbps
*Size: 29MB

Tracklist:
01. Intro 01:48
02. Temple Of Blood 03:16
03. Dominion Surge ov Fallen Angel 03:18
04. The Purge 03:08
05. Doom 03:28
06. Requiem 05:16
******************************
Total playing time: 20:14

Technical info
(IMG:https://metalarea.org/images/spectrogram/2024_Apr/8a81d101b6bbf0b147b8d30ee9821d42.png)
Input File: 03. Dominion Surge Ov Fallen Angel.mp3
Channels : 2
Sample Rate : 44100
Precision : 16-bit
Duration : 00:03:18.84 = 8768668 samples = 14912.7 CDDA sectors
File Size : 5.02M
Bit Rate : 202k
Sample Encoding: MPEG audio (layer I, II or III)
Comments :
Title=Dominion Surge ov Fallen Angel
Artist=Collapsing Decay
Album=Dominion Surge ov Fallen Angel (Demo)
Tracknumber=03
Year=2019
Genre=Death Metal



Register


Thanks:
Go to the top of the page
  Insert nick Quick quote
+Quote Post

Reply to this topicStart new topic
2 User(s) are reading this topic (2 Guests and 0 Anonymous Users)
0 Members:

 



- Lo-Fi Version Support form
Copyrights and abuse reports form
Time is now: 21st June 2024 - 08:17:01