Welcome Guest ( Log In | Register )

Объявления

* gmail.com упорно продолжает считать почту с нас "unsolicited" и отбивает в том числе и письма активации, поэтому просьба использовать альтернативные почтовые ящики.
------------
* gmail.com continues reject all mail from us as "unsolicited" (activation mails too) therefore please use alternate mail servers.
 
Reply to this topicStart new topic
> Epilectomy - Human Beef Roast (2018), Brutal Death Metal/Goregrind (D4)
post Apr 19 2024, 05:30:16
Post #1

Два Литра
**
Group: Дух
Posts: 133
Releases: 129
From: Новосибирск
On Forums: 4 years 4 months
Thanks: 754 time(s)
Russian Federation


(IMG:https://metalarea.org/images/audiocovers/2024_Apr/acov_tid395863_thumb.jpg)

*Artist: Epilectomy
*Album: Human Beef Roast
*Year: 2018
*Genre: Brutal Death Metal/Goregrind
*Country: Uruguay (IMG:https://metalarea.org/forum/style_images/flags/Uruguay.png)
*Format: mp3@CBR256kbps
*Size: 39MB

Tracklist:
01. Decapitated By An Edger 02:06
02. Virulent Sick Hallucination By Alteration In The Encephalic System 02:02
03. Human Beef Roast 03:24
04. Deams With The Pig 02:25
05. Caminando Entre Huesos 03:02
06. Olor A Podrido 02:38
07. Suffocated By Sleep 02:16
08. Involuntary Murder 02:41
******************************
Total playing time: 20:35

Technical info
(IMG:https://metalarea.org/images/spectrogram/2024_Apr/693aac7afeae96af185706ad32736ed2.png)
Input File: 02. Virulent Sick Hallucination By Alteration In The Encephalic System.mp3
Channels : 2
Sample Rate : 44100
Precision : 16-bit
Duration : 00:02:02.36 = 5396208 samples = 9177.22 CDDA sectors
File Size : 4.12M
Bit Rate : 269k
Sample Encoding: MPEG audio (layer I, II or III)
Comments :
Title=Virulent Sick Hallucination By Alteration In The Encephalic System
Artist=Epilectomy
Album=Human Beef Roast
Tracknumber=02
Year=2018
Genre=Brutal Death Metal; Goregrind



Register


Thanks:
Go to the top of the page
  Insert nick Quick quote
+Quote Post

Reply to this topicStart new topic
2 User(s) are reading this topic (2 Guests and 0 Anonymous Users)
0 Members:

 



- Lo-Fi Version Support form
Copyrights and abuse reports form
Time is now: 17th June 2024 - 08:44:12