Welcome Guest ( Log In | Register )

Объявления

* gmail.com упорно продолжает считать почту с нас "unsolicited" и отбивает в том числе и письма активации, поэтому просьба использовать альтернативные почтовые ящики.
------------
* gmail.com continues reject all mail from us as "unsolicited" (activation mails too) therefore please use alternate mail servers.
> Oratorium - Kosac [ep] (2012), Black Metal
post Apr 19 2024, 06:11:14
Post #1

Два Литра
**
Group: Дух
Posts: 133
Releases: 129
From: Новосибирск
On Forums: 4 years 4 months
Thanks: 754 time(s)
Russian Federation


(IMG:https://metalarea.org/images/audiocovers/2024_Apr/acov_tid395866_thumb.jpg)

*Artist: Oratorium
*Album: Kosac [ep]
*Year: 2012
*Genre: Black Metal
*Country: Croatia (IMG:https://metalarea.org/forum/style_images/flags/Croatia.png)
*Format: mp3@CBR192kbps
*Size: 36MB

Tracklist:
01. Ognjišta Vječnih Kletvi 05:00
02. Crni Plamen 04:17
03. Prokleta Zemlja 02:48
04. Razjarena Djevica 03:58
05. Kolo Punog Mjeseca 10:19
******************************
Total playing time: 26:24

Technical info
(IMG:https://metalarea.org/images/spectrogram/2024_Apr/faed519edcb36f72d9b44546ab757774.png)
Input File: 03. Prokleta Zemlja.mp3
Channels : 2
Sample Rate : 44100
Precision : 16-bit
Duration : 00:02:48.66 = 7437994 samples = 12649.6 CDDA sectors
File Size : 4.08M
Bit Rate : 194k
Sample Encoding: MPEG audio (layer I, II or III)
Comments :
Title=Prokleta Zemlja
Artist=Oratorium
Album=Kosac (EP)
Tracknumber=03
Year=2012
Genre=Black Metal



Register


Go to the top of the page
  Insert nick Quick quote
+Quote Post
 
Start new topic
Replies (1 - 1)
post Apr 21 2024, 17:17:06
Post #2

Правь статус, ####!111
**************
Group: Металариец
Posts: 2,042
Releases: 0
From: Canada
On Forums: 11 years 7 months
Thanks: 1468 time(s)
Canada


Go to the top of the page
  Insert nick Quick quote
+Quote Post

Reply to this topicStart new topic
2 User(s) are reading this topic (2 Guests and 0 Anonymous Users)
0 Members:

 



- Lo-Fi Version Support form
Copyrights and abuse reports form
Time is now: 17th June 2024 - 07:10:15