Welcome Guest ( Log In | Register )

Объявления

* gmail.com упорно продолжает считать почту с нас "unsolicited" и отбивает в том числе и письма активации, поэтому просьба использовать альтернативные почтовые ящики.
------------
* gmail.com continues reject all mail from us as "unsolicited" (activation mails too) therefore please use alternate mail servers.
> GoatVomit Voidkvlt - GoatVomit Voidkvlt [demo] (2019), Raw Black Metal
post Apr 19 2024, 15:40:43
Post #1

Два Литра
**
Group: Дух
Posts: 133
Releases: 129
From: Новосибирск
On Forums: 4 years 4 months
Thanks: 757 time(s)
Russian Federation


(IMG:https://metalarea.org/images/audiocovers/2024_Apr/acov_tid395904_thumb.jpg)

*Artist: GoatVomit Voidkvlt
*Album: GoatVomit Voidkvlt [demo]
*Year: 2019
*Genre: Raw Black Metal
*Country: Croatia (IMG:https://metalarea.org/forum/style_images/flags/Croatia.png)
*Format: mp3@CBR192kbps
*Size: 10MB

Tracklist:
01. Kvlt ov the Spectral Goat 03:45
02. Fvckwhore ov Satan 03:44
******************************
Total playing time: 7:29

Technical info
(IMG:https://metalarea.org/images/spectrogram/2024_Apr/bce0fce331ec2fb493de09df35d3a350.png)
Input File: 02. Fvckwhore ov Satan.mp3
Channels : 2
Sample Rate : 44100
Precision : 16-bit
Duration : 00:03:44.07 = 9881619 samples = 16805.5 CDDA sectors
File Size : 5.41M
Bit Rate : 193k
Sample Encoding: MPEG audio (layer I, II or III)
Comments :
Title=Fvckwhore ov Satan
Artist=GoatVomit Voidkvlt
Album=GoatVomit Voidkvlt (Demo)
Tracknumber=02
Year=2019
Genre=Raw Black Metal



Register


Go to the top of the page
  Insert nick Quick quote
+Quote Post
 
Start new topic
Replies (1 - 1)
post May 14 2024, 12:17:45
Post #2

Мегаманьяк
***********
Group: Металариец
Posts: 1,639
Releases: 25
From: Spain
On Forums: 16 years 9 months
Thanks: 1417 time(s)
Spain


Go to the top of the page
  Insert nick Quick quote
+Quote Post

Reply to this topicStart new topic
2 User(s) are reading this topic (2 Guests and 0 Anonymous Users)
0 Members:

 



- Lo-Fi Version Support form
Copyrights and abuse reports form
Time is now: 21st June 2024 - 08:20:37