Welcome Guest ( Log In | Register )

Объявления

* gmail.com упорно продолжает считать почту с нас "unsolicited" и отбивает в том числе и письма активации, поэтому просьба использовать альтернативные почтовые ящики.
------------
* gmail.com continues reject all mail from us as "unsolicited" (activation mails too) therefore please use alternate mail servers.
> Asathor - Vegvísir (2019), Blackened Death/Viking Metal (D4)
post Apr 19 2024, 19:06:44
Post #1

Два Литра
**
Group: Дух
Posts: 133
Releases: 129
From: Новосибирск
On Forums: 4 years 5 months
Thanks: 758 time(s)
Russian Federation


(IMG:https://metalarea.org/images/audiocovers/2024_Apr/acov_tid395916_thumb.jpg)

*Artist: Asathor
*Album: Vegvísir
*Year: 2019
*Genre: Blackened Death/Viking Metal
*Country: Luxembourg (IMG:https://metalarea.org/forum/style_images/flags/Luxembourg.png)
*Format: mp3@CBR320kbps
*Size: 66MB

Tracklist:
01. Vegvísir 01:32
02. Conquerors 06:18
03. Ginnungagap 05:39
04. The Calm Before The Storm 01:13
05. Naglfar 04:00
06. Menschenfleisch 04:33
07. Nazgûl 05:44
******************************
Total playing time: 28:59

Technical info
(IMG:https://metalarea.org/images/spectrogram/2024_Apr/cebc39c64fee115abccf81a72130c9ba.png)
Input File: 03. Ginnungagap.mp3
Channels : 2
Sample Rate : 44100
Precision : 16-bit
Duration : 00:05:39.09 = 14953781 samples = 25431.6 CDDA sectors
File Size : 13.6M
Bit Rate : 321k
Sample Encoding: MPEG audio (layer I, II or III)
Comments :
Title=Ginnungagap
Artist=Asathor
Album=Vegvísir
Tracknumber=03
Year=2019
Genre=Blackened Death Metal; Viking Metal



Register


Go to the top of the page
  Insert nick Quick quote
+Quote Post
 
Start new topic
Replies (1 - 1)
post Apr 20 2024, 12:44:41
Post #2

the ubspeakable
**********
Group: Металариец
Posts: 1,441
Releases: 37
From: Pietari
On Forums: 18 years 7 months
Thanks: 2351 time(s)
Russian Federation


Go to the top of the page
  Insert nick Quick quote
+Quote Post

Reply to this topicStart new topic
1 User(s) are reading this topic (1 Guests and 0 Anonymous Users)
0 Members:

 



- Lo-Fi Version Support form
Copyrights and abuse reports form
Time is now: 15th July 2024 - 08:25:38