Welcome Guest ( Log In | Register )

Объявления

* gmail.com упорно продолжает считать почту с нас "unsolicited" и отбивает в том числе и письма активации, поэтому просьба использовать альтернативные почтовые ящики.
------------
* gmail.com continues reject all mail from us as "unsolicited" (activation mails too) therefore please use alternate mail servers.

> И неформату есть предел.

Рэп/хип-хоп/шансон/поп удаляются. Для них есть свои порталы.

> Various Artists - Reimagining In The Court Of The Crimson King (2024), Progressive Rock (D2342)
post Apr 20 2024, 10:20:49
Post #1

21st Century Schizoid Man
**************
Group: Металариец
Posts: 8,552
Releases: 354
From: 1984
On Forums: 16 years 2 months
Thanks: 9774 time(s)
Unknown


(IMG:https://metalarea.org/images/audiocovers/2024_Apr/acov_tid395942_thumb.jpg)

*Artist: Various Artists
*Album: Reimagining In The Court Of The Crimson King
*Year: 2024
*Genre: Progressive Rock
*Country: International (IMG:https://metalarea.org/forum/style_images/flags/International.png)
*Format: mp3@CBR320kbps
*Size: 116MB

Tracklist:
01. Todd Rundgren & Arthur Brown & Mel Collins & Chris Poland & Ian Paice - 21st Century Schizoid Man 06:59
02. Mel Collins & Django Jakszyk & Jakko M. Jakszyk - I Talk To The Wind 06:16
03. Alan Davey & Paul Rudolph & Nik Turner & Adam Hamilton & Danny Faulkner - Epitaph 04:56
04. Joe Lynn Turner & Marty Friedman & Jah Wobble & Chester Thompson - Moonchild 12:30
05. James Labrie & Carmine Appice & Steve Hillage - The Court of the Crimson King 05:58
06. Arthur Brown & Brian Auger & Chris Poland & Ian Paice - 21st Century Schizoid Man 05:27
07. Mel Collins & Chris Poland & Ian Paice - 21st Century Schizoid Man (Instrumental Version) 06:59
******************************
Total playing time: 49:05


(IMG:https://metalarea.org/images/youtube.png)

Technical info
(IMG:https://metalarea.org/images/spectrogram/2024_Apr/c025cea9a42224f4da17ff1efb21907f.png)
Input File: 01. 21st Century Schizoid Man.mp3
Channels : 2
Sample Rate : 44100
Precision : 16-bit
Duration : 00:06:59.53 = 18501097 samples = 31464.5 CDDA sectors
File Size : 17.1M
Bit Rate : 325k
Sample Encoding: MPEG audio (layer I, II or III)
Comments :
Title=21st Century Schizoid Man
Artist=Todd Rundgren & Arthur Brown & Mel Collins & Chris Poland & Ian Paice
Album=Reimagining In The Court Of The Crimson King
Tracknumber=1
Year=2024
Genre=Progressive Rock



Register


Go to the top of the page
  Insert nick Quick quote
+Quote Post
 
Start new topic
Replies (1 - 4)
post Apr 20 2024, 19:57:37
Post #2

Два Литра
**
Group: Завсегдатай
Posts: 131
Releases: 0
On Forums: 6 years 8 months
Thanks: 124 time(s)
Unknown


зачем и чтобьі что?
Go to the top of the page
  Insert nick Quick quote
+Quote Post
post Apr 20 2024, 20:16:53
Post #3

21st Century Schizoid Man
**************
Group: Металариец
Posts: 8,552
Releases: 354
From: 1984
On Forums: 16 years 2 months
Thanks: 9774 time(s)
Unknown


ЦИТАТА(p4B10 @ Apr 20 2024, 21:57:37) *
зачем и чтобьі что?

В твоём случае - куда и как быстро. (IMG:style_emoticons/default/bye.gif)
Go to the top of the page
  Insert nick Quick quote
+Quote Post
post Apr 20 2024, 22:53:12
Post #4

Шесть Литров
******
Group: Металариец
Posts: 691
Releases: 0
From: Самара
On Forums: 3 years 2 months
Thanks: 334 time(s)
Russian Federation


Обложка ещё более больная, чем в оригинале - это уже практически дэт-метал. (IMG:style_emoticons/default/headcrab.png)


Go to the top of the page
  Insert nick Quick quote
+Quote Post
post Apr 22 2024, 19:24:53
Post #5

Два Литра
**
Group: Завсегдатай
Posts: 131
Releases: 0
On Forums: 6 years 8 months
Thanks: 124 time(s)
Unknown


QUOTE(Yarri @ Apr 20 2024, 20:16:53) *
В твоём случае - куда и как быстро. (IMG:style_emoticons/default/bye.gif)

куда и как бістро?
Go to the top of the page
  Insert nick Quick quote
+Quote Post

Reply to this topicStart new topic
1 User(s) are reading this topic (1 Guests and 0 Anonymous Users)
0 Members:

 



- Lo-Fi Version Support form
Copyrights and abuse reports form
Time is now: 19th July 2024 - 13:19:26