Welcome Guest ( Log In | Register )

Объявления

* gmail.com упорно продолжает считать почту с нас "unsolicited" и отбивает в том числе и письма активации, поэтому просьба использовать альтернативные почтовые ящики.
------------
* gmail.com continues reject all mail from us as "unsolicited" (activation mails too) therefore please use alternate mail servers.
 
Reply to this topicStart new topic
> Tulah - Forbidden Oath [ep] (2022), Black/Thrash Metal
post Apr 20 2024, 13:28:01
Post #1

Два Литра
**
Group: Дух
Posts: 133
Releases: 129
From: Новосибирск
On Forums: 4 years 4 months
Thanks: 754 time(s)
Russian Federation


(IMG:https://metalarea.org/images/audiocovers/2024_Apr/acov_tid395944_thumb.jpg)

*Artist: Tulah
*Album: Forbidden Oath [ep]
*Year: 2022
*Genre: Black/Thrash Metal
*Country: Malaysia (IMG:https://metalarea.org/forum/style_images/flags/Malaysia.png)
*Format: mp3@CBR192kbps
*Size: 28MB

Tracklist:
01. Darkness Is Thy Light 03:18
02. The Glory Of Satan 03:28
03. Curse Of The Damned 03:08
04. Soul Of Eternity 02:52
05. The Resilent Symbol 02:44
06. Forbidden Oath 03:54
******************************
Total playing time: 19:25

Technical info
(IMG:https://metalarea.org/images/spectrogram/2024_Apr/69c1943b7b6ead05b3d6a2050996990f.png)
Input File: 02. The Glory Of Satan.mp3
Channels : 2
Sample Rate : 44100
Precision : 16-bit
Duration : 00:03:28.11 = 9177651 samples = 15608.2 CDDA sectors
File Size : 5.16M
Bit Rate : 198k
Sample Encoding: MPEG audio (layer I, II or III)
Comments :
Title=The Glory Of Satan
Artist=Tulah
Album=Forbidden Oath (EP)
Tracknumber=02
Year=2022
Genre=Black Metal



Register


Go to the top of the page
  Insert nick Quick quote
+Quote Post

Reply to this topicStart new topic
2 User(s) are reading this topic (2 Guests and 0 Anonymous Users)
0 Members:

 



- Lo-Fi Version Support form
Copyrights and abuse reports form
Time is now: 17th June 2024 - 09:05:19