Welcome Guest ( Log In | Register )

Объявления

* gmail.com упорно продолжает считать почту с нас "unsolicited" и отбивает в том числе и письма активации, поэтому просьба использовать альтернативные почтовые ящики.
------------
* gmail.com continues reject all mail from us as "unsolicited" (activation mails too) therefore please use alternate mail servers.
 
Reply to this topicStart new topic
> Santet & Istidraj - Verbis Diaboli (Raising High The Horns Ov Hell) [split] (2024), Melodic Black Metal | Black Metal (D)
post Apr 20 2024, 15:46:09
Post #1

Два Литра
**
Group: Дух
Posts: 133
Releases: 129
From: Новосибирск
On Forums: 4 years 4 months
Thanks: 752 time(s)
Russian Federation


(IMG:https://metalarea.org/images/audiocovers/2024_Apr/acov_tid395956_thumb.jpg)

*Artist: Santet & Istidraj
*Album: Verbis Diaboli (Raising High The Horns Ov Hell) [split]
*Year: 2024
*Genre: Melodic Black Metal | Black Metal
*Country: Indonesia (IMG:https://metalarea.org/forum/style_images/flags/Indonesia.png) | Singapore (IMG:https://metalarea.org/forum/style_images/flags/Singapore.png)
*Format: mp3@CBR320kbps
*Size: 88MB

Tracklist:
01. Susuk (Curse Of Black Witch) 09:35
02. Roh Roworhontek 05:12
03. Black Fucking Mist 05:55
04. Belis Berholo Jiwo 06:38
05. Nyupang Nyi Blorong 06:24
06. Black Flags Of Khorasan 04:30
07. La Obe (The Swallows cover) 03:45
08. Zamhareer Of Jahannam 02:55
09. Verbis Diaboli 02:58
10. God Fukkin Sodomy Anno 2024 Bastardi 03:33
******************************
Total playing time: 51:30

Technical info
(IMG:https://metalarea.org/images/spectrogram/2024_Apr/42822443d5a9d671d9bc27fd0c4b87ae.png)
Input File: 06. Black Flags Of Khorasan.mp3
Channels : 1
Sample Rate : 44100
Precision : 16-bit
Duration : 00:04:30.59 = 11933063 samples = 20294.3 CDDA sectors
File Size : 10.9M
Bit Rate : 323k
Sample Encoding: MPEG audio (layer I, II or III)
Comments :
Title=Black Flags Of Khorasan
Artist=Istidraj
Album=Verbis Diaboli (Raising High The Horns Ov Hell) (Split)
Tracknumber=06
Year=2024
Genre=Black Metal



Register


Go to the top of the page
  Insert nick Quick quote
+Quote Post

Reply to this topicStart new topic
1 User(s) are reading this topic (1 Guests and 0 Anonymous Users)
0 Members:

 



- Lo-Fi Version Support form
Copyrights and abuse reports form
Time is now: 13th June 2024 - 08:05:53