Welcome Guest ( Log In | Register )

Объявления

* gmail.com упорно продолжает считать почту с нас "unsolicited" и отбивает в том числе и письма активации, поэтому просьба использовать альтернативные почтовые ящики.
------------
* gmail.com continues reject all mail from us as "unsolicited" (activation mails too) therefore please use alternate mail servers.

> И неформату есть предел.

Рэп/хип-хоп/шансон/поп удаляются. Для них есть свои порталы.

> Dool - The Shape Of Fluidity (2024), Occult/Dark Rock
post Apr 20 2024, 19:16:41
Post #1

Правь статус, ####!111
**************
Group: Металариец
Posts: 55,971
Releases: 1200
On Forums: 14 years 11 months
Thanks: 54793 time(s)
Russian Federation


(IMG:https://metalarea.org/images/audiocovers/2024_Apr/acov_tid395962_thumb.jpg)

*Artist: Dool
*Album: The Shape Of Fluidity
*Year: 2024
*Genre: Occult/Dark Rock
*Country: Netherlands (IMG:https://metalarea.org/forum/style_images/flags/Netherlands.png)
*Format: mp3@CBR320kbps
*Size: 113MB

Tracklist:
1. Venus in Flames 07:06
2. Self-Dissect 05:50
3. The Shape of Fluidity 06:38
4. Currents 02:14
5. Evil in You 03:34
6. House of a Thousand Dreams 04:49
7. Hermagorgon 06:31
8. Hymn for a Memory Lost 07:04
9. The Hand of Creation 05:52
******************************
Total playing time: 49:38



Technical info
(IMG:https://metalarea.org/images/spectrogram/2024_Apr/2989b0a41ef44015e094d8df5db0a2fb.png)
Input File: 04 Currents.mp3
Channels : 2
Sample Rate : 44100
Precision : 16-bit
Duration : 00:02:14.54 = 5933258 samples = 10090.6 CDDA sectors
File Size : 5.55M
Bit Rate : 330k
Sample Encoding: MPEG audio (layer I, II or III)
Comments :
Title=Currents
Artist=Dool
Album=The Shape Of Fluidity
Tracknumber=4/9
Year=2024
Genre=Rock
Discnumber=1/1



Register


Go to the top of the page
  Insert nick Quick quote
+Quote Post
 
Start new topic
Replies (1 - 6)
post Apr 21 2024, 10:22:53
Post #2

Правь статус, ####!111
**************
Group: Металариец
Posts: 55,971
Releases: 1200
On Forums: 14 years 11 months
Thanks: 54793 time(s)
Russian Federation


Гуд, гуд. (IMG:style_emoticons/default/20.gif)
Go to the top of the page
  Insert nick Quick quote
+Quote Post
post Apr 21 2024, 10:29:39
Post #3

Четыре Литра
****
Group: Металариец
Posts: 303
Releases: 1
On Forums: 14 years 6 months
Thanks: 110 time(s)
Russian Federation


О!
Вот это неждачник, предыдущие были просто шикарные!
Go to the top of the page
  Insert nick Quick quote
+Quote Post
post Apr 21 2024, 10:36:58
Post #4

21st Century Schizoid Man
**************
Group: Металариец
Posts: 8,447
Releases: 317
From: 1984
On Forums: 16 years 3 weeks
Thanks: 9397 time(s)
Unknown


Весьма интересно.


Go to the top of the page
  Insert nick Quick quote
+Quote Post
post Apr 21 2024, 16:36:23
Post #5

Group: Подсевший
Posts: 21
Releases: 0
On Forums: 10 years 1 day
Thanks: 2 time(s)
South Africa


New link please (IMG:style_emoticons/default/pray.gif)
Go to the top of the page
  Insert nick Quick quote
+Quote Post
post Apr 28 2024, 19:08:29
Post #6

Два Литра
**
Group: Завсегдатай
Posts: 152
Releases: 10
From: Nomad
On Forums: 17 years 4 months
Thanks: 834 time(s)
Unknown


Ждал, но впечатление сложное. Очень неровный альбом в целом получился. Поразительное смешение крайне талантливых отрезков с крайне банальными.

В целом, ставка была сделана на утяжеление, местами отдающее чуть ли не галимой альтернативой. Но талант чувствуется даже посреди этого стилевого дерьмища. Больше даже и не знаю, что сказать.
Go to the top of the page
  Insert nick Quick quote
+Quote Post
post Apr 30 2024, 06:27:50
Post #7

Литр
*
Group: Подсевший
Posts: 68
Releases: 0
On Forums: 1 year 3 months
Thanks: 20 time(s)
Bermuda


ЦИТАТА(Wise.man @ 28th April 2024 - 23:08:29) *
местами отдающее чуть ли не галимой альтернативой.

Вот есть такой момент, мне периодически вообще Guano Apes мерещилось. Но в целом норм.
Go to the top of the page
  Insert nick Quick quote
+Quote Post

Reply to this topicStart new topic
1 User(s) are reading this topic (1 Guests and 0 Anonymous Users)
0 Members:

 



- Lo-Fi Version Support form
Copyrights and abuse reports form
Time is now: 25th May 2024 - 17:48:21