Welcome Guest ( Log In | Register )

Объявления

* gmail.com упорно продолжает считать почту с нас "unsolicited" и отбивает в том числе и письма активации, поэтому просьба использовать альтернативные почтовые ящики.
------------
* gmail.com continues reject all mail from us as "unsolicited" (activation mails too) therefore please use alternate mail servers.

> Releases Upload / Добавление релизов

Добавить релиз тут / Click here to add release
Рекомендованные обменники / Recommended file shares

 
Reply to this topicStart new topic
> Osculum Serpentis - Le Fardeau [ep] (2024), Black Metal (D5)
post Apr 21 2024, 03:43:16
Post #1

Правь статус, ####!111
**************
Group: Металариец
Posts: 8,956
Releases: 7194
On Forums: 13 years 6 months
Thanks: 126805 time(s)
Italy


(IMG:https://metalarea.org/images/audiocovers/2024_Apr/acov_tid395967_thumb.jpg)

*Artist: Osculum Serpentis
*Album: Le Fardeau [ep]
*Year: 2024
*Genre: Black Metal
*Country: France (IMG:https://metalarea.org/forum/style_images/flags/France.png)
*Format: mp3@CBR320kbps
*Size: 60MB

Tracklist:
1.Introduction 02:13
2.Le Fardeau 05:14
3.Lumière écarlate Acte II: La Vierge et l'enfant Mort 06:26
4.All hope is Gone (French Version) 06:37
5.Strigoï 05:34
******************************
Total playing time: 26:04



Extended info
Unreleased EP recorded during the Miseria album session.
All instruments, vocals and cover art by Vipera.


Technical info
(IMG:https://metalarea.org/images/spectrogram/2024_Apr/ab64e055a416d84f2bf21bbc32090635.png)
Input File: 2.Le Fardeau.mp3
Channels : 2
Sample Rate : 44100
Precision : 16-bit
Duration : 00:05:14.59 = 13873287 samples = 23594 CDDA sectors
File Size : 12.8M
Bit Rate : 326k
Sample Encoding: MPEG audio (layer I, II or III)
Comments :
Title=Le Fardeau
Artist=Osculum Serpentis
Album=Le Fardeau
Tracknumber=2/5
Year=2024
Discnumber=1/1



Register


Go to the top of the page
  Insert nick Quick quote
+Quote Post

Reply to this topicStart new topic
1 User(s) are reading this topic (1 Guests and 0 Anonymous Users)
0 Members:

 



- Lo-Fi Version Support form
Copyrights and abuse reports form
Time is now: 28th May 2024 - 18:35:22