Welcome Guest ( Log In | Register )

Объявления

* gmail.com упорно продолжает считать почту с нас "unsolicited" и отбивает в том числе и письма активации, поэтому просьба использовать альтернативные почтовые ящики.
------------
* gmail.com continues reject all mail from us as "unsolicited" (activation mails too) therefore please use alternate mail servers.
 
Reply to this topicStart new topic
> Suicide Theory - And Our Black Wounds Still Remains Silence... [demo] (2014), Raw/Depressive Black Metal
post Apr 22 2024, 19:13:27
Post #1

Два Литра
**
Group: Дух
Posts: 133
Releases: 129
From: Новосибирск
On Forums: 4 years 4 months
Thanks: 757 time(s)
Russian Federation


(IMG:https://metalarea.org/images/audiocovers/2024_Apr/acov_tid396035_thumb.jpg)

*Artist: Suicide Theory
*Album: And Our Black Wounds Still Remains Silence... [demo]
*Year: 2014
*Genre: Raw/Depressive Black Metal
*Country: Indonesia (IMG:https://metalarea.org/forum/style_images/flags/Indonesia.png)
*Format: mp3@CBR192kbps
*Size: 39MB

Tracklist:
01. Depressed Wounded, The End... 04:37
02. Life's Killing Me 06:07
03. Pain In The Moon 04:26
04. A Bottle Of Poison 04:26
05. Welcome To The Pain Of The World 04:19
06. Into Gate My Of Nothingness 04:37
******************************
Total playing time: 28:32

Technical info
(IMG:https://metalarea.org/images/spectrogram/2024_Apr/db8cd629f4a2088c863290581ccab61d.png)
Input File: 02. Life\'s Killing Me.mp3
Channels : 2
Sample Rate : 48000
Precision : 16-bit
Duration : 00:06:07.10 = 17620992 samples ~ 27532.8 CDDA sectors
File Size : 8.85M
Bit Rate : 193k
Sample Encoding: MPEG audio (layer I, II or III)
Comments :
Title=Life's Killing Me
Artist=Suicide Theory
Album=And Our Black Wounds Still Remains Silence... (Demo)
Tracknumber=02
Year=2014
Genre=Depressive Black Metal



Register


Go to the top of the page
  Insert nick Quick quote
+Quote Post

Reply to this topicStart new topic
2 User(s) are reading this topic (2 Guests and 0 Anonymous Users)
0 Members:

 



- Lo-Fi Version Support form
Copyrights and abuse reports form
Time is now: 21st June 2024 - 08:03:22