Welcome Guest ( Log In | Register )

Объявления

* gmail.com упорно продолжает считать почту с нас "unsolicited" и отбивает в том числе и письма активации, поэтому просьба использовать альтернативные почтовые ящики.
------------
* gmail.com continues reject all mail from us as "unsolicited" (activation mails too) therefore please use alternate mail servers.
 
Reply to this topicStart new topic
> Cranioencephalic - A Bloody Night [ep] (2023), Slamming Brutal Death Metal
post Apr 22 2024, 20:19:41
Post #1

Два Литра
**
Group: Дух
Posts: 133
Releases: 129
From: Новосибирск
On Forums: 4 years 4 months
Thanks: 754 time(s)
Russian Federation


(IMG:https://metalarea.org/images/audiocovers/2024_Apr/acov_tid396037_thumb.jpg)

*Artist: Cranioencephalic
*Album: A Bloody Night [ep]
*Year: 2023
*Genre: Slamming Brutal Death Metal
*Country: Brazil (IMG:https://metalarea.org/forum/style_images/flags/Brazil.png)
*Format: mp3@CBR192kbps
*Size: 20MB

Tracklist:
01. Killer Baby 03:10
02. Organs Out 03:31
03. Suicide 03:08
04. Bloody Bath 02:45
05. A Bloody Night 01:29
******************************
Total playing time: 14:03

Technical info
(IMG:https://metalarea.org/images/spectrogram/2024_Apr/75dddb6db55433a218645b29a6f72eca.png)
Input File: 03. Suicide.mp3
Channels : 2
Sample Rate : 44100
Precision : 16-bit
Duration : 00:03:08.39 = 8307823 samples = 14129 CDDA sectors
File Size : 4.64M
Bit Rate : 197k
Sample Encoding: MPEG audio (layer I, II or III)
Comments :
Title=Suicide
Artist=Cranioencephalic
Album=A Bloody Night (EP)
Tracknumber=03
Year=2023
Genre=Slamming Brutal Death Metal



Register


Thanks:
Go to the top of the page
  Insert nick Quick quote
+Quote Post

Reply to this topicStart new topic
2 User(s) are reading this topic (2 Guests and 0 Anonymous Users)
0 Members:

 



- Lo-Fi Version Support form
Copyrights and abuse reports form
Time is now: 17th June 2024 - 08:17:58