Welcome Guest ( Log In | Register )

Объявления

* gmail.com упорно продолжает считать почту с нас "unsolicited" и отбивает в том числе и письма активации, поэтому просьба использовать альтернативные почтовые ящики.
------------
* gmail.com continues reject all mail from us as "unsolicited" (activation mails too) therefore please use alternate mail servers.
 
Reply to this topicStart new topic
> Pride Is Murder - Destripada Masa Corporal [ep] (2018), Slamming Brutal Death Metal
post Apr 22 2024, 20:47:40
Post #1

Два Литра
**
Group: Дух
Posts: 133
Releases: 129
From: Новосибирск
On Forums: 4 years 4 months
Thanks: 754 time(s)
Russian Federation


(IMG:https://metalarea.org/images/audiocovers/2024_Apr/acov_tid396038_thumb.jpg)

*Artist: Pride Is Murder
*Album: Destripada Masa Corporal [ep]
*Year: 2018
*Genre: Slamming Brutal Death Metal
*Country: El Salvador (IMG:https://metalarea.org/forum/style_images/flags/El%20Salvador.png)
*Format: mp3@CBR320kbps
*Size: 33MB

Tracklist:
01. Extirpación Visceral 03:17
02. Aberrante Fantasia Zoofilica 03:18
03. Destripada Masa Corporal 02:19
04. Heladero Pedofilo Chancroso 02:22
05. Infección Uterina Por Herpes 02:37
******************************
Total playing time: 13:54

Technical info
(IMG:https://metalarea.org/images/spectrogram/2024_Apr/91852e6cc692f6dde16555d427450e6a.png)
Input File: 02. Aberrante Fantasia Zoofilica.mp3
Channels : 2
Sample Rate : 44100
Precision : 16-bit
Duration : 00:03:18.93 = 8772945 samples = 14920 CDDA sectors
File Size : 8.09M
Bit Rate : 325k
Sample Encoding: MPEG audio (layer I, II or III)
Comments :
Title=Aberrante Fantasia Zoofilica
Artist=Pride Is Murder
Album=Destripada Masa Corporal
Tracknumber=02
Year=2018
Genre=Slamming Brutal Death Metal



Register


Thanks:
(1) grobator,
Go to the top of the page
  Insert nick Quick quote
+Quote Post

Reply to this topicStart new topic
2 User(s) are reading this topic (2 Guests and 0 Anonymous Users)
0 Members:

 



- Lo-Fi Version Support form
Copyrights and abuse reports form
Time is now: 17th June 2024 - 07:28:26