Welcome Guest ( Log In | Register )

Объявления

* gmail.com упорно продолжает считать почту с нас "unsolicited" и отбивает в том числе и письма активации, поэтому просьба использовать альтернативные почтовые ящики.
------------
* gmail.com continues reject all mail from us as "unsolicited" (activation mails too) therefore please use alternate mail servers.

> Releases Upload / Добавление релизов

Добавить релиз тут / Click here to add release
Рекомендованные обменники / Recommended file shares

 
Reply to this topicStart new topic
> Lutto - Coscienze Infelici (2024), Black/Gothic Metal
post Apr 23 2024, 23:27:55
Post #1

Правь статус, 616
**************
Group: Металариец
Posts: 10,772
Releases: 8774
From: 55°35’N 38°08’E
On Forums: 15 years 10 months
Thanks: 156120 time(s)
Russian Federation


(IMG:https://metalarea.org/images/audiocovers/2024_Apr/acov_tid396078_thumb.jpg)

*Artist: Lutto
*Album: Coscienze Infelici
*Year: 2024
*Genre: Black/Gothic Metal
*Country: Italy (IMG:https://metalarea.org/forum/style_images/flags/Italy.png)
*Format: mp3@CBR320kbps
*Size: 96MB

Tracklist:
1.Sedotto Dall'Abisso 07:14
2.Occhi Senza Volto 07:53
3.La Ballata Di Elizabeth 05:53
4.Il Velo 08:13
5.Coscienze Infelici 10:57
6.Stato Di Natura 01:18
******************************
Total playing time: 41:28




Technical info
(IMG:https://metalarea.org/images/spectrogram/2024_Apr/3c07d066b614e987d2b6cf312bc4a6f2.png)
Input File: 01 Sedotto Dall\'Abisso.mp3
Channels : 2
Sample Rate : 44100
Precision : 16-bit
Duration : 00:07:14.10 = 19143942 samples = 32557.7 CDDA sectors
File Size : 17.4M
Bit Rate : 321k
Sample Encoding: MPEG audio (layer I, II or III)
Comments :
Title=Sedotto Dall'Abisso
Artist=Lutto
Album=Coscienze Infelici
Tracknumber=1/6
Year=2024
Genre=Black Gothic Metal
Discnumber=1/1



Register


Go to the top of the page
  Insert nick Quick quote
+Quote Post

Reply to this topicStart new topic
1 User(s) are reading this topic (1 Guests and 0 Anonymous Users)
0 Members:

 



- Lo-Fi Version Support form
Copyrights and abuse reports form
Time is now: 30th May 2024 - 20:24:18