Welcome Guest ( Log In | Register )

Объявления

* gmail.com упорно продолжает считать почту с нас "unsolicited" и отбивает в том числе и письма активации, поэтому просьба использовать альтернативные почтовые ящики.
------------
* gmail.com continues reject all mail from us as "unsolicited" (activation mails too) therefore please use alternate mail servers.
> Disbelief - Killing Karma (2024), Death/Black Metal/Sludge (D)
post Apr 25 2024, 11:38:56
Post #1

Правь статус, ####!111
**************
Group: Металариец
Posts: 36,458
Releases: 27186
From: Г.Харьков
On Forums: 12 years 2 months
Thanks: 592659 time(s)
Ukraine


(IMG:https://metalarea.org/images/audiocovers/2024_Apr/acov_tid396128_thumb.jpg)

*Artist: Disbelief
*Album: Killing Karma
*Year: 2024
*Genre: Death/Black Metal/Sludge
*Country: Germany (IMG:https://metalarea.org/forum/style_images/flags/Germany.png)
*Format: mp3@CBR320kbps
*Size: 132MB

Tracklist:
1. Reborn 03:58
2. Killing Karma 04:35
3. The Scream That Slowly Disapeared 03:40
4. With Deep Regret 04:13
5. A Leap in the Dark 04:24
6. Inhuman Whore 03:16
7. Morbid Man 05:08
8. Condemnation 04:40
9. Flash of Inspiration 04:52
10. The End of Gods 03:33
11. This Last Order 05:17
12. Millenium (Killing Joke cover) 05:21
13. Fragile Aeon 04:01
******************************
Total playing time: 56:58



Extended info
Jagger Vocals
Joe Trunk Bass
Dave Renner Guitars
Marius Pack Guitars
Timo Claas Drums



Technical info
(IMG:https://metalarea.org/images/spectrogram/2024_Apr/4daec7d1881b1d4e779f9f253064573c.png)
Input File: 07 - Morbid Man.mp3
Channels : 2
Sample Rate : 44100
Precision : 16-bit
Duration : 00:05:08.00 = 13582800 samples = 23100 CDDA sectors
File Size : 12.5M
Bit Rate : 325k
Sample Encoding: MPEG audio (layer I, II or III)
Comments :
Title=Morbid Man
Artist=Disbelief
Album=Killing Karma
Tracknumber=7
Year=2024-04-26
Genre=Metal
Discnumber=1



Register


Go to the top of the page
  Insert nick Quick quote
+Quote Post
 
Start new topic
Replies (1 - 5)
post May 5 2024, 15:06:06
Post #2

Русский
********
Group: Металариец
Posts: 839
Releases: 0
From: Москва
On Forums: 17 years 10 months
Thanks: 265 time(s)
Russian Federation


вокалер в Morgoth пел


Thanks:
(1) DarkHorde,
Go to the top of the page
  Insert nick Quick quote
+Quote Post
post May 6 2024, 11:38:08
Post #3

a caress of pale light
**************
Group: Металариец
Posts: 8,810
Releases: 13
On Forums: 14 years 8 months
Thanks: 4510 time(s)
Unknown


ЦИТАТА(denver @ 5th May 2024 - 17:06:06) *
вокалер в Morgoth пел

так лет 30 не новость.

Первые впечатления - самые приятные. Фирмовый и в меру попсовый (в рамках дэт метала) черножелчный смерте-грязь метал. Вкусные композиции в наличии. Приятный Арт от Atterigner.
Любителям группы зайдёт.
Go to the top of the page
  Insert nick Quick quote
+Quote Post
post May 8 2024, 17:54:28
Post #4

Русский
********
Group: Металариец
Posts: 839
Releases: 0
From: Москва
On Forums: 17 years 10 months
Thanks: 265 time(s)
Russian Federation


ЦИТАТА(Chasm @ May 6 2024, 13:38:08) *
так лет 30 не новость.

Первые впечатления - самые приятные. Фирмовый и в меру попсовый (в рамках дэт метала) черножелчный смерте-грязь метал. Вкусные композиции в наличии. Приятный Арт от Atterigner.
Любителям группы зайдёт.

вокалер с Дисбелиф стартонул петь с Моргот с 15го года где то. (IMG:style_emoticons/default/bye.gif)


Thanks:
(1) Chasm,
Go to the top of the page
  Insert nick Quick quote
+Quote Post
post May 10 2024, 07:54:04
Post #5

Наливай!
**************
Group: Металариец
Posts: 6,441
Releases: 27
From: Москва-Бибирево
On Forums: 16 years 4 months
Thanks: 3347 time(s)
Russian Federation


Нормальный такой ДэтхэндРолл. Можно слушать.
Go to the top of the page
  Insert nick Quick quote
+Quote Post
post May 12 2024, 08:44:50
Post #6

Семь Литров
*******
Group: Металариец
Posts: 798
Releases: 0
From: simferopol
On Forums: 17 years 1 month
Thanks: 391 time(s)
Ukraine


Очень классный материал, и в целом структурный каркас, и цепляющих моментов в изобилии. Пока лучший релиз года
Go to the top of the page
  Insert nick Quick quote
+Quote Post

Reply to this topicStart new topic
2 User(s) are reading this topic (2 Guests and 0 Anonymous Users)
0 Members:

 



- Lo-Fi Version Support form
Copyrights and abuse reports form
Time is now: 23rd July 2024 - 21:32:56