Welcome Guest ( Log In | Register )

Объявления

* gmail.com упорно продолжает считать почту с нас "unsolicited" и отбивает в том числе и письма активации, поэтому просьба использовать альтернативные почтовые ящики.
------------
* gmail.com continues reject all mail from us as "unsolicited" (activation mails too) therefore please use alternate mail servers.

> Releases Upload / Добавление релизов

Добавить релиз тут / Click here to add release
Рекомендованные обменники / Recommended file shares

> Moonshadow's Slave - Pantagruel's Dreams (2024), Depressive Black Metal
post Apr 25 2024, 13:38:43
Post #1

Два Литра
**
Group: Дух
Posts: 133
Releases: 129
From: Новосибирск
On Forums: 4 years 4 months
Thanks: 757 time(s)
Russian Federation


(IMG:https://metalarea.org/images/audiocovers/2024_Apr/acov_tid396149_thumb.jpg)

*Artist: Moonshadow's Slave
*Album: Pantagruel's Dreams
*Year: 2024
*Genre: Depressive Black Metal
*Country: Greece (IMG:https://metalarea.org/forum/style_images/flags/Greece.png)
*Format: mp3@CBR320kbps
*Size: 52MB

Tracklist:
01. Damaged Lullaby 03:27
02. Deep Degenerative Lethargy 02:31
03. A Very Sad Disturbed Clown 06:09
04. Rotting Regicide 05:17
05. My Slowest Dance 05:04
******************************
Total playing time: 22:29

Technical info
(IMG:https://metalarea.org/images/spectrogram/2024_Apr/159174c03b0cf61cd47864834ee0dd85.png)
Input File: 05. My Slowest Dance.mp3
Channels : 2
Sample Rate : 48000
Precision : 16-bit
Duration : 00:05:04.01 = 14592384 samples ~ 22800.6 CDDA sectors
File Size : 12.3M
Bit Rate : 324k
Sample Encoding: MPEG audio (layer I, II or III)
Comments :
Title=My Slowest Dance
Artist=Moonshadow's Slave
Album=Pantagruel's Dreams
Tracknumber=05
Year=2024
Genre=Depressive Black Metal



Register


Go to the top of the page
  Insert nick Quick quote
+Quote Post
 
Start new topic
Replies (1 - 2)
post Apr 25 2024, 15:48:19
Post #2

Два Литра
**
Group: Завсегдатай
Posts: 157
Releases: 0
On Forums: 5 years 1 month
Thanks: 23 time(s)
Israel


Garbage
Go to the top of the page
  Insert nick Quick quote
+Quote Post
post Apr 25 2024, 18:28:51
Post #3

Шесть Литров
******
Group: Металариец
Posts: 521
Releases: 0
From: Мурманск
On Forums: 14 years 2 months
Thanks: 708 time(s)
Russian Federation




Thanks:
Go to the top of the page
  Insert nick Quick quote
+Quote Post

Reply to this topicStart new topic
2 User(s) are reading this topic (2 Guests and 0 Anonymous Users)
0 Members:

 



- Lo-Fi Version Support form
Copyrights and abuse reports form
Time is now: 21st June 2024 - 08:22:49