Welcome Guest ( Log In | Register )

Объявления

* gmail.com упорно продолжает считать почту с нас "unsolicited" и отбивает в том числе и письма активации, поэтому просьба использовать альтернативные почтовые ящики.
------------
* gmail.com continues reject all mail from us as "unsolicited" (activation mails too) therefore please use alternate mail servers.
> Ossilegium - The Gods Below (2024), Black Metal
post May 2 2024, 15:34:14
Post #1

Serial Uploader
Group Icon
Group: V.I.P
Posts: 42,989
Releases: 41047
From: Lithuania
On Forums: 16 years 1 month
Thanks: 527676 time(s)
Lithuania


(IMG:https://metalarea.org/images/audiocovers/2024_May/acov_tid396478_thumb.jpg)

*Artist: Ossilegium
*Album: The Gods Below
*Year: 2024
*Genre: Black Metal
*Country: United States (IMG:https://metalarea.org/forum/style_images/flags/United%20States.png)
*Format: mp3@CBR320kbps
*Size: 103MB

Tracklist:
1. Nightborn 05:05
2. Serpentine Shadows 05:56
3. The Winds of Astaroth 05:32
4. Beyond the Clandestine 05:17
5. The Heart of Darkness 01:47
6. To Reach the Eternal Ends 06:52
7. Constellationrise 06:17
8. The Gods Below 06:04
9. Planar Nexus 01:00
******************************
Total playing time: 43:50



(IMG:https://metalarea.org/images/youtube.png)

Technical info
(IMG:https://metalarea.org/images/spectrogram/2024_May/e9542f808592ebc6d400b2985b1066d9.png)
Input File: 02 - Serpentine Shadows.mp3
Channels : 2
Sample Rate : 44100
Precision : 16-bit
Duration : 00:05:56.00 = 15699600 samples = 26700 CDDA sectors
File Size : 14.6M
Bit Rate : 328k
Sample Encoding: MPEG audio (layer I, II or III)
Comments :
Title=Serpentine Shadows
Artist=Ossilegium
Album=The Gods Below
Tracknumber=2
Year=2024-05-03
Genre=Metal
Discnumber=1



Register


Go to the top of the page
  Insert nick Quick quote
+Quote Post
 
Start new topic
Replies (1 - 1)
post May 15 2024, 09:11:19
Post #2

Common dweller of hell
**************
Group: Металариец
Posts: 5,486
Releases: 12
From: Dnipro
On Forums: 16 years 1 week
Thanks: 2228 time(s)
Ukraine


Пойдет, вполне не плохо.
Go to the top of the page
  Insert nick Quick quote
+Quote Post

Reply to this topicStart new topic
1 User(s) are reading this topic (1 Guests and 0 Anonymous Users)
0 Members:

 



- Lo-Fi Version Support form
Copyrights and abuse reports form
Time is now: 23rd July 2024 - 06:04:25