Welcome Guest ( Log In | Register )

Объявления

* gmail.com упорно продолжает считать почту с нас "unsolicited" и отбивает в том числе и письма активации, поэтому просьба использовать альтернативные почтовые ящики.
------------
* gmail.com continues reject all mail from us as "unsolicited" (activation mails too) therefore please use alternate mail servers.

> Releases Upload / Добавление релизов

Добавить релиз тут / Click here to add release
Рекомендованные обменники / Recommended file shares

 
Reply to this topicStart new topic
> Toxic Pub - To Not Die Blind (2024), Thrash Metal
post May 5 2024, 00:40:17
Post #1

Правь статус, ####!111
**************
Group: Металариец
Posts: 36,162
Releases: 26957
From: Г.Харьков
On Forums: 12 years 1 month
Thanks: 585539 time(s)
Ukraine


(IMG:https://metalarea.org/images/audiocovers/2024_May/acov_tid396588_thumb.jpg)

*Artist: Toxic Pub
*Album: To Not Die Blind
*Year: 2024
*Genre: Thrash Metal
*Country: Greece (IMG:https://metalarea.org/forum/style_images/flags/Greece.png)
*Format: mp3@CBR320kbps
*Size: 82MB

Tracklist:
01. Toxic Pub
02. Panic Attack
03. ..To Not Die Blind
04. Still Unformed
05. The End is Nigh
06. Thin Line
07. Stoned to Death
08. Delusions
******************************
Total playing time: 34:49



Extended info
Adriano Ferro Bass (2020-present)
Dimitris Fourniotis Drums (2020-present)
Stephanos Konstantinou Guitars (lead) (2020-present)
See also: Typhus
George Kokolios Vocals, Guitar (2020-present)


Technical info
(IMG:https://metalarea.org/images/spectrogram/2024_May/f45eee2dd2e9ffb128c5291988c5dfb0.png)
Input File: 07 - Stoned to Death.mp3
Channels : 2
Sample Rate : 44100
Precision : 16-bit
Duration : 00:05:38.00 = 14905800 samples = 25350 CDDA sectors
File Size : 13.9M
Bit Rate : 328k
Sample Encoding: MPEG audio (layer I, II or III)
Comments :
Title=Stoned to Death
Artist=Toxic Pub
Album=To Not Die Blind
Tracknumber=7
Year=2024-05-05
Genre=Metal
Discnumber=1



Register


Go to the top of the page
  Insert nick Quick quote
+Quote Post
post May 15 2024, 15:30:05
Post #2

_ - = # Thrashogolic # = - _ ... а давайте поржём все вместе
**************
Group: Металариец
Posts: 22,600
Releases: 4444
From: 404
On Forums: 13 years 11 months
Thanks: 29237 time(s)
Ukraine


bandcamp ссылка, как это водится у Samaritianin, не представляет данный релиз, а ведёт на наличие живой демки
(их дебютного релиза) Toxic Pub - Live Demo 2021 [demo] (2021)

Актуальная для данного релиза ссылка
Go to the top of the page
  Insert nick Quick quote
+Quote Post

Reply to this topicStart new topic
1 User(s) are reading this topic (1 Guests and 0 Anonymous Users)
0 Members:

 



- Lo-Fi Version Support form
Copyrights and abuse reports form
Time is now: 14th June 2024 - 11:17:04