Welcome Guest ( Log In | Register )

Объявления

* gmail.com упорно продолжает считать почту с нас "unsolicited" и отбивает в том числе и письма активации, поэтому просьба использовать альтернативные почтовые ящики.
------------
* gmail.com continues reject all mail from us as "unsolicited" (activation mails too) therefore please use alternate mail servers.

> Releases Upload / Добавление релизов

Добавить релиз тут / Click here to add release
Рекомендованные обменники / Recommended file shares

> Anette Olzon - Rapture (2024), Symphonic/Power Metal
post May 9 2024, 13:07:08
Post #1

Serial Uploader
Group Icon
Group: V.I.P
Posts: 42,772
Releases: 40835
From: Lithuania
On Forums: 16 years 1 week
Thanks: 523831 time(s)
Lithuania


(IMG:https://metalarea.org/images/audiocovers/2024_May/acov_tid396876_thumb.jpg)

*Artist: Anette Olzon
*Album: Rapture
*Year: 2024
*Genre: Symphonic/Power Metal
*Country: Sweden (IMG:https://metalarea.org/forum/style_images/flags/Sweden.png)
*Format: mp3@CBR320kbps
*Size: 124MB

Tracklist:
1. Heed The Call 04:57
2. Rapture 04:58
3. Day Of Wrath 04:36
4. Requiem 04:15
5. Arise 05:20
6. Take A Stand 03:57
7. Cast Evil Out 05:01
8. Greedy World 04:52
9. Hear My Song 04:49
10. Head Up High 05:03
11. We Search For Peace 04:06
******************************
Total playing time: 51:54

(IMG:https://metalarea.org/images/myspace.png)

Preview 3
(IMG:https://metalarea.org/images/youtube.png)

Technical info
(IMG:https://metalarea.org/images/spectrogram/2024_May/dbf5a7de322959404b835f16fd4b00f0.png)
Input File: 06 - Take A Stand.mp3
Channels : 2
Sample Rate : 44100
Precision : 16-bit
Duration : 00:03:57.44 = 10471236 samples = 17808.2 CDDA sectors
File Size : 9.99M
Bit Rate : 337k
Sample Encoding: MPEG audio (layer I, II or III)
Comments :
Title=Take A Stand
Artist=Anette Olzon
Album=Rapture
Tracknumber=6/11
Year=2024
Discnumber=1/1



Register


Go to the top of the page
  Insert nick Quick quote
+Quote Post
 
Start new topic
Replies (1 - 4)
post May 9 2024, 17:46:07
Post #2

Литр
*
Group: Подсевший
Posts: 65
Releases: 0
On Forums: 1 year 4 months
Thanks: 8 time(s)
Greenland



I love her. She is perfect. thanks
Go to the top of the page
  Insert nick Quick quote
+Quote Post
post May 9 2024, 18:32:36
Post #3

Литр
*
Group: Подсевший
Posts: 68
Releases: 0
From: Barcelona - Spain
On Forums: 1 year 4 months
Thanks: 5 time(s)
Spain


Line-Up:

Anette Olzon: Vocals (Allen / Olzon, The Dark Element, Ultima Grace, Alyson Avenue, ex-Disdain, ex-Nightwish, ex-Take Cover)
Johan Husgafve Bass, Vocals (harsh) (ex-Cyanide, ex-Plague Divine, ex-Mörk Gryning (live), ex-Pain (live), ex-8th Sin)
Anders Köllerfors: Drums (Allen / Olzon, Heart Healer, Narnia, Starbreaker)
Magnus Karlsson Guitars (Allen / Olzon, Ginevra, Heart Healer, Kiske / Somerville, Magnus Karlsson's Free Fall, Primal Fear, The Ferrymen, ex-Last Tribe, ex-Midnight Sun, ex-Planet Alliance, ex-The Codex, Starbreaker, ex-Bob Catley, ex-Scheepers (live), ex-Allen - Lande, ex-Frontiers All Stars)
Go to the top of the page
  Insert nick Quick quote
+Quote Post
post May 10 2024, 18:42:06
Post #4

MDM-Thrash Metal
**************
Group: Металариец
Posts: 12,493
Releases: 1745
From: Одесса
On Forums: 16 years 10 months
Thanks: 40504 time(s)
Ukraine


Go to the top of the page
  Insert nick Quick quote
+Quote Post
post Jun 11 2024, 10:54:09
Post #5

Правь статус, ####!111
**************
Group: Металариец
Posts: 2,521
Releases: 6
From: Kyiv
On Forums: 16 years 7 months
Thanks: 326 time(s)
Ukraine


на разок-другой норм.
Go to the top of the page
  Insert nick Quick quote
+Quote Post

Reply to this topicStart new topic
2 User(s) are reading this topic (2 Guests and 0 Anonymous Users)
0 Members:

 



- Lo-Fi Version Support form
Copyrights and abuse reports form
Time is now: 17th June 2024 - 23:42:17