Welcome Guest ( Log In | Register )

Объявления

* gmail.com упорно продолжает считать почту с нас "unsolicited" и отбивает в том числе и письма активации, поэтому просьба использовать альтернативные почтовые ящики.
------------
* gmail.com continues reject all mail from us as "unsolicited" (activation mails too) therefore please use alternate mail servers.
> AfterTime - Arcane Horizons (2024), Symphonic Metal (D5)
post May 9 2024, 13:53:04
Post #1

Serial Uploader
Group Icon
Group: V.I.P
Posts: 42,944
Releases: 41005
From: Lithuania
On Forums: 16 years 1 month
Thanks: 527013 time(s)
Lithuania


(IMG:https://metalarea.org/images/audiocovers/2024_May/acov_tid396886_thumb.jpg)

*Artist: AfterTime
*Album: Arcane Horizons
*Year: 2024
*Genre: Symphonic Metal
*Country: United States (IMG:https://metalarea.org/forum/style_images/flags/United%20States.png)
*Format: mp3@CBR320kbps
*Size: 154MB

Tracklist:
1. Ultra Terram 02:04
2. Arcane Horizons 05:31
3. Sons Of Fenrir 04:25
4. Armored Heart 04:02
5. Of Lust And Rust 05:17
6. Amongst The Trees 05:09
7. Goddess Of Dark Horizons 05:19
8. Verdant Siren 04:33
9. Druid's Dance 04:08
10. Lament d'Morgan 06:24
11. Under A Midnight Sun 02:50
12. A Prophecy Of Realms 11:07
13. By The Tavern's Light 03:52
******************************
Total playing time: 1:04:41


Preview 2

(IMG:https://metalarea.org/images/youtube.png)

Technical info
(IMG:https://metalarea.org/images/spectrogram/2024_May/c7a0577298090602a56a00d585b91bbb.png)
Input File: 03 - Sons of Fenrir.mp3
Channels : 2
Sample Rate : 44100
Precision : 16-bit
Duration : 00:04:26.00 = 11730424 samples = 19949.7 CDDA sectors
File Size : 11.1M
Bit Rate : 334k
Sample Encoding: MPEG audio (layer I, II or III)
Comments :
Title=Sons of Fenrir
Artist=AfterTime
Album=Arcane Horizons
Tracknumber=3/13
Year=2024
Discnumber=1/1



Register


Go to the top of the page
  Insert nick Quick quote
+Quote Post
 
Start new topic
Replies (1 - 4)
post May 9 2024, 15:06:22
Post #2

Мегаманьяк
***********
Group: Металариец
Posts: 1,843
Releases: 0
From: Russian Federation - St.Petersburg
On Forums: 15 years 4 months
Thanks: 527 time(s)
Russian Federation


Красотка в видосе ппц! (IMG:style_emoticons/default/1488.gif)
Go to the top of the page
  Insert nick Quick quote
+Quote Post
post May 9 2024, 15:10:42
Post #3

Три Литра
***
Group: Завсегдатай
Posts: 213
Releases: 0
On Forums: 9 years 4 months
Thanks: 215 time(s)
Unknown


ЦИТАТА(Olrak @ 9th May 2024 - 15:06:22) *
Красотка в видосе ппц!

У нас такие в столовых работают.


Thanks:
Go to the top of the page
  Insert nick Quick quote
+Quote Post
post May 9 2024, 19:12:24
Post #4

Мегаманьяк
***********
Group: Металариец
Posts: 1,843
Releases: 0
From: Russian Federation - St.Petersburg
On Forums: 15 years 4 months
Thanks: 527 time(s)
Russian Federation


ЦИТАТА(Hellraiser @ May 9 2024, 17:10:42) *
У нас такие в столовых работают.

Ну хоть в соседних за сегодня сабжах маячат путёвые "поварихи"... (IMG:style_emoticons/default/smile4.gif)
https://www.youtube.com/watch?v=ouMzyowzzJw
https://www.youtube.com/watch?v=6wRLuG7tahc
Go to the top of the page
  Insert nick Quick quote
+Quote Post
post May 15 2024, 14:32:22
Post #5

Два Литра
**
Group: Завсегдатай
Posts: 139
Releases: 0
From: Сибирь
On Forums: 15 years 5 months
Thanks: 44 time(s)
Russian Federation


справедливости ради, вокал у неё неплох. но внешность, подчёркнутая к тому же нелепым нарядом, на любителя, это да
Go to the top of the page
  Insert nick Quick quote
+Quote Post

Reply to this topicStart new topic
1 User(s) are reading this topic (1 Guests and 0 Anonymous Users)
0 Members:

 



- Lo-Fi Version Support form
Copyrights and abuse reports form
Time is now: 16th July 2024 - 11:11:13