Welcome Guest ( Log In | Register )

Объявления

* gmail.com упорно продолжает считать почту с нас "unsolicited" и отбивает в том числе и письма активации, поэтому просьба использовать альтернативные почтовые ящики.
------------
* gmail.com continues reject all mail from us as "unsolicited" (activation mails too) therefore please use alternate mail servers.

> Releases Upload / Добавление релизов

Добавить релиз тут / Click here to add release
Рекомендованные обменники / Recommended file shares

> Desolus - System Shock (2024), Thrash Metal
post May 9 2024, 15:05:12
Post #1

Правь статус, ####!111
**************
Group: Металариец
Posts: 35,908
Releases: 26755
From: Г.Харьков
On Forums: 12 years 1 week
Thanks: 580360 time(s)
Ukraine


(IMG:https://metalarea.org/images/audiocovers/2024_May/acov_tid396893_thumb.jpg)

*Artist: Desolus
*Album: System Shock
*Year: 2024
*Genre: Thrash Metal
*Country: United States (IMG:https://metalarea.org/forum/style_images/flags/United%20States.png)
*Format: mp3@CBR320kbps
*Size: 93MB

Tracklist:
1. System Shock 04:28
2. From Man to Machine 04:11
3. Curse of the Technomancer 03:55
4. Metal Fetishist 04:01
5. The Arrival (of Evil) 04:16
6. The Invasion Begins 03:25
7. Interlude 01:56
8. Sea of Fire 04:59
9. The Sigilite 04:06
10. Panopticon 04:03
******************************
Total playing time: 39:20



Extended info
Vivek Rangarajan Bass, Vocals (2020-present)
See also: Torvus (live)
Travis Stone Drums (2020-present)
See also: Noisem, Pig Destroyer, Cavalera Conspiracy (live), ex-Necropsy, ex-Healing Magic, ex-Lody Kong
Jimmy Frost Guitars, Vocals (2020-present)


Technical info
(IMG:https://metalarea.org/images/spectrogram/2024_May/8742c522948f14a8bb7d0363542e8978.png)
Input File: 08 - Sea Of Fire.mp3
Channels : 2
Sample Rate : 44100
Precision : 16-bit
Duration : 00:04:59.00 = 13185900 samples = 22425 CDDA sectors
File Size : 12.3M
Bit Rate : 329k
Sample Encoding: MPEG audio (layer I, II or III)
Comments :
Title=Sea Of Fire
Artist=Desolus
Album=System Shock
Tracknumber=8
Year=2024-05-10
Genre=Metal
Discnumber=1



Register


Go to the top of the page
  Insert nick Quick quote
+Quote Post
 
Start new topic
Replies (1 - 5)
post May 10 2024, 19:06:43
Post #2

MDM-Thrash Metal
**************
Group: Металариец
Posts: 12,440
Releases: 1737
From: Одесса
On Forums: 16 years 9 months
Thanks: 40413 time(s)
Ukraine


Old School Thrash/Speed Metal - приличная работа.


Thanks:
Go to the top of the page
  Insert nick Quick quote
+Quote Post
post May 11 2024, 18:58:57
Post #3

Правь статус, ####!111
**************
Group: Металариец
Posts: 35,908
Releases: 26755
From: Г.Харьков
On Forums: 12 years 1 week
Thanks: 580360 time(s)
Ukraine


FLAC (Tracks) 264 mb
Register


Thanks:
Go to the top of the page
  Insert nick Quick quote
+Quote Post
post May 13 2024, 08:13:03
Post #4

Common dweller of hell
**************
Group: Металариец
Posts: 5,393
Releases: 12
From: Dnipro
On Forums: 15 years 10 months
Thanks: 2193 time(s)
Ukraine


Местами напоминает Kreator 1986 года
From Man to Machine практически калька с Under the Guillotine


Thanks:
Go to the top of the page
  Insert nick Quick quote
+Quote Post
post May 13 2024, 09:29:07
Post #5

_ - = # Thrashogolic # = - _ ... а давайте поржём все вместе
**************
Group: Металариец
Posts: 22,383
Releases: 4444
From: 404
On Forums: 13 years 11 months
Thanks: 29099 time(s)
Ukraine


Andrew, Old School Thrash/Death Metal
или просто брутальный Трэш.

Speed - это когда дебютные альбомы Металлики и Слэера
Go to the top of the page
  Insert nick Quick quote
+Quote Post
post May 15 2024, 14:40:01
Post #6

Два Литра
**
Group: Завсегдатай
Posts: 138
Releases: 0
From: Сибирь
On Forums: 15 years 3 months
Thanks: 44 time(s)
Russian Federation


чот вообще бестолково как-то (IMG:style_emoticons/default/22.gif)
Go to the top of the page
  Insert nick Quick quote
+Quote Post

Reply to this topicStart new topic
2 User(s) are reading this topic (2 Guests and 0 Anonymous Users)
0 Members:

 



- Lo-Fi Version Support form
Copyrights and abuse reports form
Time is now: 22nd May 2024 - 08:15:10