Welcome Guest ( Log In | Register )

Объявления

* gmail.com упорно продолжает считать почту с нас "unsolicited" и отбивает в том числе и письма активации, поэтому просьба использовать альтернативные почтовые ящики.
------------
* gmail.com continues reject all mail from us as "unsolicited" (activation mails too) therefore please use alternate mail servers.
 
Reply to this topicStart new topic
> Intoxicated - Metal Neck (1997), Thrash Metal (D8)
post May 9 2024, 15:25:02
Post #1

Подвал
**************
Group: Металариец
Posts: 20,475
Releases: 11750
From: Far East (Khabarovsk)
On Forums: 15 years 4 months
Thanks: 139676 time(s)
Russian Federation


(IMG:https://metalarea.org/images/audiocovers/2024_May/acov_tid396898_thumb.jpg)

*Artist: Intoxicated
*Album: Metal Neck
*Year: 1997
*Genre: Thrash Metal
*Country: United States (IMG:https://metalarea.org/forum/style_images/flags/United%20States.png)
*Format: mp3@CBR192kbps
*Size: 45MB

Tracklist:
1. Flood 05:09
2. Metal Neck 05:05
3. False Promise 04:07
4. Control 07:22
5. System Of Shit / Swamp Terror 11:28
******************************
Total playing time: 33:11

Extended info
Band from Altamonte Springs, Florida.


Technical info
(IMG:https://metalarea.org/images/spectrogram/2024_May/539f857f1642103ffe378f2223455ccf.png)
Input File: 01-Flood.mp3
Channels : 2
Sample Rate : 44100
Precision : 16-bit
Duration : 00:05:09.23 = 13636867 samples = 23192 CDDA sectors
File Size : 7.42M
Bit Rate : 192k
Sample Encoding: MPEG audio (layer I, II or III)
Comments :
Title=Flood
Artist=Intoxicated (US, FL)
Album=Metal Neck
Tracknumber=01
Year=1997
Genre=Thrash Metal



Register


Go to the top of the page
  Insert nick Quick quote
+Quote Post

Reply to this topicStart new topic
1 User(s) are reading this topic (1 Guests and 0 Anonymous Users)
0 Members:

 



- Lo-Fi Version Support form
Copyrights and abuse reports form
Time is now: 13th June 2024 - 05:23:42