Welcome Guest ( Log In | Register )

Объявления

* gmail.com упорно продолжает считать почту с нас "unsolicited" и отбивает в том числе и письма активации, поэтому просьба использовать альтернативные почтовые ящики.
------------
* gmail.com continues reject all mail from us as "unsolicited" (activation mails too) therefore please use alternate mail servers.

> Releases Upload / Добавление релизов

Добавить релиз тут / Click here to add release
Рекомендованные обменники / Recommended file shares

> Binary Creed - Leash Of Noise (2024), Progressive Power Metal (D6)
post May 9 2024, 16:53:17
Post #1

Serial Uploader
Group Icon
Group: V.I.P
Posts: 42,601
Releases: 40667
From: Lithuania
On Forums: 15 years 11 months
Thanks: 521275 time(s)
Lithuania


(IMG:https://metalarea.org/images/audiocovers/2024_May/acov_tid396908_thumb.jpg)

*Artist: Binary Creed
*Album: Leash Of Noise
*Year: 2024
*Genre: Progressive Power Metal
*Country: Sweden (IMG:https://metalarea.org/forum/style_images/flags/Sweden.png)
*Format: mp3@CBR320kbps
*Size: 74MB

Tracklist:
1. The Journey 01:12
2. The Punisher 03:54
3. Leash Of Noise 03:48
4. Cries For The Children 04:41
5. My Tempest 03:28
6. Traveller 03:42
7. Bones 03:16
8. Fly With Me 03;42
9. Price Of Progress 04:12
******************************
Total playing time: 28:13


Preview 2


(IMG:https://metalarea.org/images/youtube.png)

Technical info
(IMG:https://metalarea.org/images/spectrogram/2024_May/47b428e78550da30d0f4d0ee11470de0.png)
Input File: 02. The Punisher.mp3
Channels : 2
Sample Rate : 44100
Precision : 16-bit
Duration : 00:03:54.07 = 10322619 samples = 17555.5 CDDA sectors
File Size : 9.51M
Bit Rate : 325k
Sample Encoding: MPEG audio (layer I, II or III)
Comments :
Title=The Punisher
Artist=Binary Creed
Album=Leash of Noise
Tracknumber=2/9
Year=2024
Genre=Progressive Metal



Register


Go to the top of the page
  Insert nick Quick quote
+Quote Post
 
Start new topic
Replies (1 - 1)
post May 9 2024, 21:00:58
Post #2

Тридцать три года на борту "тяжёлого" крейсера
**************
Group: Металариец
Posts: 3,141
Releases: 0
From: Питер
On Forums: 16 years 11 months
Thanks: 998 time(s)
Russian Federation


Работа довольно слабая, подвыдохлись парни. И так-то звезд с неба не хватали, но на этот раз совсем тухленько
Go to the top of the page
  Insert nick Quick quote
+Quote Post

Reply to this topicStart new topic
1 User(s) are reading this topic (1 Guests and 0 Anonymous Users)
0 Members:

 



- Lo-Fi Version Support form
Copyrights and abuse reports form
Time is now: 26th May 2024 - 18:23:47