Welcome Guest ( Log In | Register )

Объявления

* gmail.com упорно продолжает считать почту с нас "unsolicited" и отбивает в том числе и письма активации, поэтому просьба использовать альтернативные почтовые ящики.
------------
* gmail.com continues reject all mail from us as "unsolicited" (activation mails too) therefore please use alternate mail servers.

> И неформату есть предел.

Рэп/хип-хоп/шансон/поп удаляются. Для них есть свои порталы.

> Demersal - Demersal (2024), Post-Hardcore
post May 12 2024, 16:29:53
Post #1

Правь статус, ####!111
**************
Group: Металариец
Posts: 7,613
Releases: 6964
From: Одесса
On Forums: 16 years 1 week
Thanks: 81225 time(s)
Ukraine


(IMG:https://metalarea.org/images/audiocovers/2024_May/acov_tid397022_thumb.jpg)

*Artist: Demersal
*Album: Demersal
*Year: 2024
*Genre: Post-Hardcore
*Country: Denmark (IMG:https://metalarea.org/forum/style_images/flags/Denmark.png)
*Format: flac
*Size: 252MB

Tracklist:
1. Flakkende som tusinde lys 01:17
2. Bedrager 02:02
3. Lys i natten 01:53
4. Something 04:37
5. Will Never Shows 02:00
6. Kunsten at slå tiden ihjel 02:27
7. Androide identiteter 03:38
8. Vakuum 05:01
9. Selvhjælp 03:13
10. Be Kind 02:58
11. Det mindste ingenting 02:36
12. Som et barn mod dit bryst 04:07
******************************
Total playing time: 35:49




Extended info
Line - up:

Philip - Drums
Jonas - Guitars, Bass
Sebastian - Guitars, Bass, Vocals (ex-Hexis (live))
Viktor - Guitars, Vocals (Telos, ex-Hexis (live))


Technical info
(IMG:https://metalarea.org/images/spectrogram/2024_May/04567f9729b87847e4771584540b1155.png)
Input File: 12 - Som Et Barn Mod Dit Bryst.flac
Channels : 2
Sample Rate : 44100
Precision : 16-bit
Duration : 00:04:07.67 = 10922100 samples = 18575 CDDA sectors
File Size : 30.9M
Bit Rate : 999k
Sample Encoding: 16-bit FLAC
Comments :
Artist=Demersal
Album=Demersal
Date=2024
Genre=Post-Hardcore | Mathcore
Title=Som Et Barn Mod Dit Bryst
TrackNumber=12
Album Artist=Demersal
Description=



Register


Go to the top of the page
  Insert nick Quick quote
+Quote Post
 
Start new topic
Replies (1 - 1)
post May 25 2024, 11:28:20
Post #2

Маньяк
**********
Group: Металариец
Posts: 1,153
Releases: 0
On Forums: 13 years 1 month
Thanks: 571 time(s)
Unknown


Please could you encode a 320 set?
Go to the top of the page
  Insert nick Quick quote
+Quote Post

Reply to this topicStart new topic
1 User(s) are reading this topic (1 Guests and 0 Anonymous Users)
0 Members:

 



- Lo-Fi Version Support form
Copyrights and abuse reports form
Time is now: 13th June 2024 - 08:26:27