Welcome Guest ( Log In | Register )

Объявления

* gmail.com упорно продолжает считать почту с нас "unsolicited" и отбивает в том числе и письма активации, поэтому просьба использовать альтернативные почтовые ящики.
------------
* gmail.com continues reject all mail from us as "unsolicited" (activation mails too) therefore please use alternate mail servers.
> Maquahuitl - Tequitl [ep] (2024), Black Metal (D)
post May 13 2024, 17:20:20
Post #1

Пять Литров
*****
Group: Металариец
Posts: 420
Releases: 34
From: France
On Forums: 14 years 11 months
Thanks: 1151 time(s)
France


(IMG:https://metalarea.org/images/audiocovers/2024_May/acov_tid397059_thumb.jpg)

*Artist: Maquahuitl
*Album: Tequitl [ep]
*Year: 2024
*Genre: Black Metal
*Country: United States (IMG:https://metalarea.org/forum/style_images/flags/United%20States.png)
*Format: mp3@CBR320kbps
*Size: 36MB

Tracklist:
01. Bandera del sol 05:25
02. Xcambocoche 05:34
03. Mahuiznotza 05:07
******************************
Total playing time: 16:06

(IMG:https://metalarea.org/images/youtube.png)

Extended info
CD-Rip


Technical info
(IMG:https://metalarea.org/images/spectrogram/2024_May/397d91034178da1119c5a5fc25e8a5ee.png)
Input File: 03 - Mahuiznotza.mp3
Channels : 2
Sample Rate : 44100
Precision : 16-bit
Duration : 00:05:06.62 = 13521898 samples = 22996.4 CDDA sectors
File Size : 12.3M
Bit Rate : 320k
Sample Encoding: MPEG audio (layer I, II or III)
Comments :
Title=Mahuiznotza
Artist=Maquahuitl
Album=Tequitl (EP)
Tracknumber=03
Year=2024
Genre=Black Metal
Discnumber=1/1



Register


Go to the top of the page
  Insert nick Quick quote
+Quote Post
 
Start new topic
Replies (1 - 1)
post May 15 2024, 13:48:58
Post #2

Правь статус, ####!111
**************
Group: Металариец
Posts: 2,850
Releases: 426
From: Bretagne
On Forums: 16 years 1 month
Thanks: 5354 time(s)
France


merci !!!

excelent pagan/atmospheric black metal with dark melodies !
preview track 1 : https://youtu.be/AfXt8M0VAFg?si=FP9qczEKOmYiyPM4


Thanks:
(1) squall8fr,
Go to the top of the page
  Insert nick Quick quote
+Quote Post

Reply to this topicStart new topic
1 User(s) are reading this topic (1 Guests and 0 Anonymous Users)
0 Members:

 



- Lo-Fi Version Support form
Copyrights and abuse reports form
Time is now: 14th July 2024 - 15:31:07