Welcome Guest ( Log In | Register )

Объявления

* gmail.com упорно продолжает считать почту с нас "unsolicited" и отбивает в том числе и письма активации, поэтому просьба использовать альтернативные почтовые ящики.
------------
* gmail.com continues reject all mail from us as "unsolicited" (activation mails too) therefore please use alternate mail servers.
> Selk'nam - Kamuk [ep] (2024), Atmospheric Black Metal
post May 13 2024, 18:11:44
Post #1

Правь статус, ####!111
**************
Group: Металариец
Posts: 7,689
Releases: 7031
From: Одесса
On Forums: 16 years 1 month
Thanks: 82050 time(s)
Ukraine


(IMG:https://metalarea.org/images/audiocovers/2024_May/acov_tid397061_thumb.jpg)

*Artist: Selk'nam
*Album: Kamuk [ep]
*Year: 2024
*Genre: Atmospheric Black Metal
*Country: Argentina (IMG:https://metalarea.org/forum/style_images/flags/Argentina.png)
*Format: mp3@CBR320kbps
*Size: 33MB

Tracklist:
1. Kojh 06:46
2. Chalu 07:17
******************************
Total playing time: 14:03



Technical info
(IMG:https://metalarea.org/images/spectrogram/2024_May/85221f51899bbead9310ed8e3da2817b.png)
Input File: 01. Kojh.mp3
Channels : 2
Sample Rate : 44100
Precision : 16-bit
Duration : 00:06:46.10 = 17908966 samples = 30457.4 CDDA sectors
File Size : 16.3M
Bit Rate : 322k
Sample Encoding: MPEG audio (layer I, II or III)
Comments :
Title=Kojh
Artist=Selk'nam
Album=Kamuk (EP)
Tracknumber=1
Year=2024
Genre=Atmospheric Black Metal



Register


Go to the top of the page
  Insert nick Quick quote
+Quote Post
 
Start new topic
Replies (1 - 1)
post May 15 2024, 13:54:21
Post #2

Правь статус, ####!111
**************
Group: Металариец
Posts: 2,850
Releases: 426
From: Bretagne
On Forums: 16 years 1 month
Thanks: 5354 time(s)
France


thanks! good black metal with atmospheric & raw aspects
"name your price" on bandcamp
Go to the top of the page
  Insert nick Quick quote
+Quote Post

Reply to this topicStart new topic
1 User(s) are reading this topic (1 Guests and 0 Anonymous Users)
0 Members:

 



- Lo-Fi Version Support form
Copyrights and abuse reports form
Time is now: 14th July 2024 - 15:04:56