Welcome Guest ( Log In | Register )

Объявления

* gmail.com упорно продолжает считать почту с нас "unsolicited" и отбивает в том числе и письма активации, поэтому просьба использовать альтернативные почтовые ящики.
------------
* gmail.com continues reject all mail from us as "unsolicited" (activation mails too) therefore please use alternate mail servers.

> Releases Upload / Добавление релизов

Добавить релиз тут / Click here to add release
Рекомендованные обменники / Recommended file shares

> Asthenic Syn - Four Walls And Nothing [ep] (2023), Black Metal (D)
post May 13 2024, 19:37:19
Post #1

Правь статус, 616
**************
Group: Металариец
Posts: 10,741
Releases: 8746
From: 55°35’N 38°08’E
On Forums: 15 years 10 months
Thanks: 155624 time(s)
Russian Federation


(IMG:https://metalarea.org/images/audiocovers/2024_May/acov_tid397068_thumb.jpg)

*Artist: Asthenic Syn
*Album: Four Walls And Nothing [ep]
*Year: 2023
*Genre: Black Metal
*Country: Russian Federation (IMG:https://metalarea.org/forum/style_images/flags/Russian%20Federation.png)
*Format: mp3@CBR320kbps
*Size: 69MB

Tracklist:
1.Седативная Жизнь 06:47
2.Анатомия Человеческой Деструктивности 10:44
3.Кубок Основ (Ulvdalir cover) 05:53
4.Сбежал С Горы И Замер В Чаще... (Alienation Cold cover) 05:37
******************************
Total playing time: 29:01





Technical info
(IMG:https://metalarea.org/images/spectrogram/2024_May/b7b643dee98dcb4e54cab2c07d3f814a.png)
Input File: 02 Анатомия Человеческой Деструктивности.mp3
Channels : 2
Sample Rate : 44100
Precision : 16-bit
Duration : 00:10:44.61 = 28427301 samples = 48345.8 CDDA sectors
File Size : 25.9M
Bit Rate : 321k
Sample Encoding: MPEG audio (layer I, II or III)
Comments :
Title=Анатомия Человеческой Деструктивности
Artist=Asthenic Syn
Album=Four Walls And Nothing
Tracknumber=2
Year=2023
Genre=Black Metal



Register


Go to the top of the page
  Insert nick Quick quote
+Quote Post
 
Start new topic
Replies (1 - 2)
post May 15 2024, 14:27:17
Post #2

Правь статус, ####!111
**************
Group: Металариец
Posts: 2,519
Releases: 418
From: Bretagne
On Forums: 16 years 5 days
Thanks: 5086 time(s)
France


modern depressive black metal
free download on bandcamp
Go to the top of the page
  Insert nick Quick quote
+Quote Post
post May 15 2024, 15:42:23
Post #3

a caress of pale light
**************
Group: Металариец
Posts: 8,651
Releases: 13
On Forums: 14 years 6 months
Thanks: 4428 time(s)
Unknown


Многократно переслушано. Очень хорошо.
Go to the top of the page
  Insert nick Quick quote
+Quote Post

Reply to this topicStart new topic
3 User(s) are reading this topic (3 Guests and 0 Anonymous Users)
0 Members:

 



- Lo-Fi Version Support form
Copyrights and abuse reports form
Time is now: 22nd May 2024 - 09:50:23