Welcome Guest ( Log In | Register )

Объявления

* gmail.com упорно продолжает считать почту с нас "unsolicited" и отбивает в том числе и письма активации, поэтому просьба использовать альтернативные почтовые ящики.
------------
* gmail.com continues reject all mail from us as "unsolicited" (activation mails too) therefore please use alternate mail servers.
> Grave Ghoul - Living Burial Ground [ep] (2023), Death Metal
post May 13 2024, 23:34:23
Post #1

:3
**************
Group: Металариец
Posts: 5,149
Releases: 108
On Forums: 16 years 9 months
Thanks: 4333 time(s)
Russian Federation


(IMG:https://metalarea.org/images/audiocovers/2024_May/acov_tid397072_thumb.jpg)

*Artist: Grave Ghoul
*Album: Living Burial Ground [ep]
*Year: 2023
*Genre: Death Metal
*Country: United Kingdom (IMG:https://metalarea.org/forum/style_images/flags/United%20Kingdom.png)
*Format: mp3@CBR320kbps
*Size: 47MB

Tracklist:
01 Grotesque Pleasure 03:51
02 Skin Splitting 03:55
03 Dr Butcher 03:36
04 Scalped 03:28
05 Living Burial Ground 04:24
******************************
Total playing time: 19:14



Technical info
(IMG:https://metalarea.org/images/spectrogram/2024_May/3d9ae8c5670177f72f3fa68e6a9995e7.png)
Input File: 01. Grotesque Pleasure.mp3
Channels : 2
Sample Rate : 44100
Precision : 16-bit
Duration : 00:03:51.07 = 10190143 samples = 17330.2 CDDA sectors
File Size : 9.76M
Bit Rate : 338k
Sample Encoding: MPEG audio (layer I, II or III)
Comments :
Title=Grotesque Pleasure
Artist=Grave Ghoul
Album=Living Burial Ground (EP)
Tracknumber=01
Year=2023
Genre=Death Metal



Register


Go to the top of the page
  Insert nick Quick quote
+Quote Post
 
Start new topic
Replies (1 - 1)
post May 15 2024, 14:57:01
Post #2

Правь статус, ####!111
**************
Group: Металариец
Posts: 2,852
Releases: 426
From: Bretagne
On Forums: 16 years 1 month
Thanks: 5358 time(s)
France


thanks! excelent old school thrashing & cavernous death metal (IMG:style_emoticons/default/20.gif)
"name your price" on bandcamp
Go to the top of the page
  Insert nick Quick quote
+Quote Post

Reply to this topicStart new topic
1 User(s) are reading this topic (1 Guests and 0 Anonymous Users)
0 Members:

 



- Lo-Fi Version Support form
Copyrights and abuse reports form
Time is now: 16th July 2024 - 09:38:10