Welcome Guest ( Log In | Register )

Объявления

* gmail.com упорно продолжает считать почту с нас "unsolicited" и отбивает в том числе и письма активации, поэтому просьба использовать альтернативные почтовые ящики.
------------
* gmail.com continues reject all mail from us as "unsolicited" (activation mails too) therefore please use alternate mail servers.

> Releases Upload / Добавление релизов

Добавить релиз тут / Click here to add release
Рекомендованные обменники / Recommended file shares

> Sovereign Of Conquest - Lamentations Of Supernatural Revelation [ep] (2024), Psychedelic Black Metal
post May 14 2024, 00:35:09
Post #1

Правь статус, 616
**************
Group: Металариец
Posts: 10,741
Releases: 8746
From: 55°35’N 38°08’E
On Forums: 15 years 10 months
Thanks: 155625 time(s)
Russian Federation


(IMG:https://metalarea.org/images/audiocovers/2024_May/acov_tid397073_thumb.jpg)

*Artist: Sovereign Of Conquest
*Album: Lamentations Of Supernatural Revelation [ep]
*Year: 2024
*Genre: Psychedelic Black Metal
*Country: Indonesia (IMG:https://metalarea.org/forum/style_images/flags/Indonesia.png)
*Format: mp3@CBR320kbps
*Size: 70MB

Tracklist:
1.Spirit Chants a Forbidden Spells 08:05
2.Cursed Glass and The Lost Prayers 08:42
3.Ghostly Rhapsody 04:37
4.Incense, Candles, and Flowers 08:54
******************************
Total playing time: 30:18



Technical info
(IMG:https://metalarea.org/images/spectrogram/2024_May/ee9a21629111f217565524f4fb0c15fa.png)
Input File: 02 Cursed Glass and The Lost Prayers.mp3
Channels : 2
Sample Rate : 44100
Precision : 16-bit
Duration : 00:08:42.56 = 23044852 samples = 39191.9 CDDA sectors
File Size : 21.0M
Bit Rate : 321k
Sample Encoding: MPEG audio (layer I, II or III)
Comments :
Title=Cursed Glass and The Lost Prayers
Artist=Sovereign of Conquest
Album=Lamentations of Supernatural Revelation
Tracknumber=2
Year=2024
Genre=Black Metal



Register


Go to the top of the page
  Insert nick Quick quote
+Quote Post
 
Start new topic
Replies (1 - 1)
post May 15 2024, 15:54:21
Post #2

Правь статус, ####!111
**************
Group: Металариец
Posts: 2,519
Releases: 418
From: Bretagne
On Forums: 16 years 5 days
Thanks: 5087 time(s)
France


thanks !! excelent EP! very good mix between old school death metal and obscure avant-garde/synth black metal (IMG:style_emoticons/default/19.gif)
"name your price" on bandcamp !

FLAC from bandcamp :
Register



Thanks:
Go to the top of the page
  Insert nick Quick quote
+Quote Post

Reply to this topicStart new topic
2 User(s) are reading this topic (2 Guests and 0 Anonymous Users)
0 Members:

 



- Lo-Fi Version Support form
Copyrights and abuse reports form
Time is now: 22nd May 2024 - 10:00:48