Welcome Guest ( Log In | Register )

Объявления

* gmail.com упорно продолжает считать почту с нас "unsolicited" и отбивает в том числе и письма активации, поэтому просьба использовать альтернативные почтовые ящики.
------------
* gmail.com continues reject all mail from us as "unsolicited" (activation mails too) therefore please use alternate mail servers.

> Releases Upload / Добавление релизов

Добавить релиз тут / Click here to add release
Рекомендованные обменники / Recommended file shares

> Киста - II [ep] (2024), Death Metal/Blackened Crust
post May 14 2024, 15:59:50
Post #1

Правь статус, ####!111
**************
Group: Металариец
Posts: 56,171
Releases: 1218
On Forums: 15 years 3 weeks
Thanks: 55152 time(s)
Russian Federation


(IMG:https://metalarea.org/images/audiocovers/2024_May/acov_tid397090_thumb.jpg)

*Artist: Киста
*Album: II [ep]
*Year: 2024
*Genre: Death Metal/Blackened Crust
*Country: Russian Federation (IMG:https://metalarea.org/forum/style_images/flags/Russian%20Federation.png)
*Format: mp3@CBR320kbps
*Size: 40MB

Tracklist:
1. Intro
2. Born Unblest
3. Mentally Dead
4. Ropes
5. Weakless
6. Erase Bitterness
7. Abvolous Nerve
8. Down Reasons
9. Bliss Humanity
******************************
Total playing time: 16:01



Technical info
(IMG:https://metalarea.org/images/spectrogram/2024_May/fba9bd96474d61d91e38824288a17ca1.png)
Input File: 06 Erase bitterness.mp3
Channels : 2
Sample Rate : 44100
Precision : 16-bit
Duration : 00:02:57.96 = 7847992 samples = 13346.9 CDDA sectors
File Size : 7.12M
Bit Rate : 320k
Sample Encoding: MPEG audio (layer I, II or III)
Comments :
Title=Erase bitterness
Artist=Киста
Album=II
Tracknumber=6
Year=2024
Genre=Blackened Crust



Register


Go to the top of the page
  Insert nick Quick quote
+Quote Post
 
Start new topic
Replies (1 - 2)
post May 14 2024, 17:05:37
Post #2

Group: Подсевший
Posts: 33
Releases: 0
On Forums: 11 years 3 months
Thanks: 19 time(s)
Unknown


Действительно, киста.
Go to the top of the page
  Insert nick Quick quote
+Quote Post
post May 16 2024, 08:31:24
Post #3

Правь статус, ####!111
**************
Group: Металариец
Posts: 2,733
Releases: 425
From: Bretagne
On Forums: 16 years 1 month
Thanks: 5274 time(s)
France


thanks! nice death grinding crust !
"name your price" on bandcamp
Go to the top of the page
  Insert nick Quick quote
+Quote Post

Reply to this topicStart new topic
1 User(s) are reading this topic (1 Guests and 0 Anonymous Users)
0 Members:

 



- Lo-Fi Version Support form
Copyrights and abuse reports form
Time is now: 24th June 2024 - 08:35:35