Welcome Guest ( Log In | Register )

Объявления

* gmail.com упорно продолжает считать почту с нас "unsolicited" и отбивает в том числе и письма активации, поэтому просьба использовать альтернативные почтовые ящики.
------------
* gmail.com continues reject all mail from us as "unsolicited" (activation mails too) therefore please use alternate mail servers.

> Releases Upload / Добавление релизов

Добавить релиз тут / Click here to add release
Рекомендованные обменники / Recommended file shares

 
Reply to this topicStart new topic
> Spectral Omen - Antediluvian Codes [ep] (2024), Black Metal
post May 14 2024, 16:00:46
Post #1

Правь статус, 616
**************
Group: Металариец
Posts: 10,741
Releases: 8746
From: 55°35’N 38°08’E
On Forums: 15 years 10 months
Thanks: 155623 time(s)
Russian Federation


(IMG:https://metalarea.org/images/audiocovers/2024_May/acov_tid397091_thumb.jpg)

*Artist: Spectral Omen
*Album: Antediluvian Codes [ep]
*Year: 2024
*Genre: Black Metal
*Country: United States (IMG:https://metalarea.org/forum/style_images/flags/United%20States.png)
*Format: mp3@CBR320kbps
*Size: 37MB

Tracklist:
1.Intro 00:38
2.Dark Magick Slave 02:27
3.Antediluvian Codes 05:26
4.Nocturnal Distress 02:51
5.Horned God 04:23
******************************
Total playing time: 15:45



(IMG:https://metalarea.org/images/youtube.png)

Technical info
(IMG:https://metalarea.org/images/spectrogram/2024_May/020a2864d82dab4f0426a66a5a4ea86e.png)
Input File: 02 Dark Magick Slave.mp3
Channels : 2
Sample Rate : 44100
Precision : 16-bit
Duration : 00:02:27.94 = 6524242 samples = 11095.6 CDDA sectors
File Size : 6.07M
Bit Rate : 328k
Sample Encoding: MPEG audio (layer I, II or III)
Comments :
Title=Dark Magick Slave
Artist=Spectral Omen
Album=Antediluvian Codes
Tracknumber=2/5
Year=2024
Genre=Black Metal
Discnumber=1/1



Register


Go to the top of the page
  Insert nick Quick quote
+Quote Post

Reply to this topicStart new topic
2 User(s) are reading this topic (2 Guests and 0 Anonymous Users)
0 Members:

 



- Lo-Fi Version Support form
Copyrights and abuse reports form
Time is now: 22nd May 2024 - 09:45:20