Welcome Guest ( Log In | Register )

Объявления

* gmail.com упорно продолжает считать почту с нас "unsolicited" и отбивает в том числе и письма активации, поэтому просьба использовать альтернативные почтовые ящики.
------------
* gmail.com continues reject all mail from us as "unsolicited" (activation mails too) therefore please use alternate mail servers.

> Releases Upload / Добавление релизов

Добавить релиз тут / Click here to add release
Рекомендованные обменники / Recommended file shares

 
Reply to this topicStart new topic
> Morbid Instinct - Belligerent [ep] (2024), Death Metal/Deathcore
post May 14 2024, 17:03:07
Post #1

Правь статус, ####!111
**************
Group: Металариец
Posts: 7,552
Releases: 6908
From: Одесса
On Forums: 15 years 11 months
Thanks: 80437 time(s)
Ukraine


(IMG:https://metalarea.org/images/audiocovers/2024_May/acov_tid397092_thumb.png)

*Artist: Morbid Instinct
*Album: Belligerent [ep]
*Year: 2024
*Genre: Death Metal/Deathcore
*Country: United States (IMG:https://metalarea.org/forum/style_images/flags/United%20States.png)
*Format: mp3@CBR320kbps
*Size: 33MB

Tracklist:
1. Never Friends 03:27
2. Belligerent 03:09
3. Unity (remastered) 03:25
4. Wormbeast (remastered) 03:25
******************************
Total playing time: 13:26



Extended info
Line - up:

Noah Flores - Guitars
John Cody - Unknown


Technical info
(IMG:https://metalarea.org/images/spectrogram/2024_May/4321a0018d26d43554a7704e717e8864.png)
Input File: 02. Belligerent.mp3
Channels : 2
Sample Rate : 44100
Precision : 16-bit
Duration : 00:03:09.40 = 8352584 samples = 14205.1 CDDA sectors
File Size : 7.58M
Bit Rate : 320k
Sample Encoding: MPEG audio (layer I, II or III)
Comments :
Title=Belligerent
Artist=Morbid Instinct
Album=Belligerent (EP)
Tracknumber=2
Year=2024
Genre=Technical Death Metal | Deathcore



Register


Go to the top of the page
  Insert nick Quick quote
+Quote Post

Reply to this topicStart new topic
1 User(s) are reading this topic (1 Guests and 0 Anonymous Users)
0 Members:

 



- Lo-Fi Version Support form
Copyrights and abuse reports form
Time is now: 22nd May 2024 - 10:02:20