Welcome Guest ( Log In | Register )

Объявления

* gmail.com упорно продолжает считать почту с нас "unsolicited" и отбивает в том числе и письма активации, поэтому просьба использовать альтернативные почтовые ящики.
------------
* gmail.com continues reject all mail from us as "unsolicited" (activation mails too) therefore please use alternate mail servers.

> Releases Upload / Добавление релизов

Добавить релиз тут / Click here to add release
Рекомендованные обменники / Recommended file shares

 
Reply to this topicStart new topic
> Thornscrown - Thornscrown I (2024), Instrumental Doom Metal
post May 14 2024, 17:18:18
Post #1

Правь статус, ####!111
**************
Group: Металариец
Posts: 7,552
Releases: 6908
From: Одесса
On Forums: 15 years 11 months
Thanks: 80437 time(s)
Ukraine


(IMG:https://metalarea.org/images/audiocovers/2024_May/acov_tid397093_thumb.jpg)

*Artist: Thornscrown
*Album: Thornscrown I
*Year: 2024
*Genre: Instrumental Doom Metal
*Country: Spain (IMG:https://metalarea.org/forum/style_images/flags/Spain.png)
*Format: mp3@CBR320kbps
*Size: 61MB

Tracklist:
1. Sacramental 02:35
2. They Are Coming to Get You 02:12
3. 3 02:51
4. Mass Grave World 03:12
5. Outro 01:40
6. Out of Nowhere 02:07
7. DoomChrist 03:08
8. Massacre of the Innocents 02:53
9. Preachers of Doom 03:27
10. Outro II 02:14
******************************
Total playing time: 26:19

Extended info


Technical info
(IMG:https://metalarea.org/images/spectrogram/2024_May/88d4b232b347e71a0232a13416a07fc2.png)
Input File: 04. Mass Grave World.mp3
Channels : 2
Sample Rate : 44100
Precision : 16-bit
Duration : 00:03:12.07 = 8470111 samples = 14405 CDDA sectors
File Size : 7.69M
Bit Rate : 320k
Sample Encoding: MPEG audio (layer I, II or III)
Comments :
Title=Mass Grave World
Artist=thornscrown
Album=Thornscrown I
Tracknumber=4
Year=2024
Genre=Instrumental Extreme | Doom Metal



Register


Go to the top of the page
  Insert nick Quick quote
+Quote Post

Reply to this topicStart new topic
1 User(s) are reading this topic (1 Guests and 0 Anonymous Users)
0 Members:

 



- Lo-Fi Version Support form
Copyrights and abuse reports form
Time is now: 22nd May 2024 - 10:14:43