Welcome Guest ( Log In | Register )

Объявления

* gmail.com упорно продолжает считать почту с нас "unsolicited" и отбивает в том числе и письма активации, поэтому просьба использовать альтернативные почтовые ящики.
------------
* gmail.com continues reject all mail from us as "unsolicited" (activation mails too) therefore please use alternate mail servers.

> Releases Upload / Добавление релизов

Добавить релиз тут / Click here to add release
Рекомендованные обменники / Recommended file shares

> Necropsyum - Eclipse Of The Black Sun (2024), Black Metal
post May 14 2024, 17:20:54
Post #1

Правь статус, 616
**************
Group: Металариец
Posts: 10,860
Releases: 8844
From: 55°35’N 38°08’E
On Forums: 15 years 11 months
Thanks: 157402 time(s)
Russian Federation


(IMG:https://metalarea.org/images/audiocovers/2024_May/acov_tid397094_thumb.jpg)

*Artist: Necropsyum
*Album: Eclipse Of The Black Sun
*Year: 2024
*Genre: Black Metal
*Country: Brazil (IMG:https://metalarea.org/forum/style_images/flags/Brazil.png)
*Format: mp3@CBR320kbps
*Size: 74MB

Tracklist:
1.In the name of... Ghosts of the Fallen 00:59
2.The Call of the Black Eagles 03:59
3.Iron Warrior's Blood Rites 06:01
4.Eternal Cries of Triumph 06:01
5.March Towards Death and Ruin 01:58
6.Reign of the Dead Shadows 05:16
7.Ancient Kingdom's Kommando 06:01
8.Blood & Honour 01:28
******************************
Total playing time: 31:43


(IMG:https://metalarea.org/images/youtube.png)

Technical info
(IMG:https://metalarea.org/images/spectrogram/2024_May/a8ec9ccd9238fdd15e9a6b9407b9ff81.png)
Input File: 02 The Call of the Black Eagles.mp3
Channels : 2
Sample Rate : 44100
Precision : 16-bit
Duration : 00:03:59.51 = 10562259 samples = 17963 CDDA sectors
File Size : 9.72M
Bit Rate : 325k
Sample Encoding: MPEG audio (layer I, II or III)
Comments :
Title=The Call of the Black Eagles
Artist=Necropsyum
Album=Eclipse Of The Black Sun
Tracknumber=2
Year=2024
Genre=Black Metal



Register


Go to the top of the page
  Insert nick Quick quote
+Quote Post
 
Start new topic
Replies (1 - 1)
post May 16 2024, 08:41:09
Post #2

Правь статус, ####!111
**************
Group: Металариец
Posts: 2,732
Releases: 425
From: Bretagne
On Forums: 16 years 1 month
Thanks: 5273 time(s)
France


good release ! finnish-styled black metal (if you like Goatmoon , Satanic Warmaster ... ) (IMG:style_emoticons/default/20.gif)
"name your price" on bandcamp
Go to the top of the page
  Insert nick Quick quote
+Quote Post

Reply to this topicStart new topic
1 User(s) are reading this topic (1 Guests and 0 Anonymous Users)
0 Members:

 



- Lo-Fi Version Support form
Copyrights and abuse reports form
Time is now: 24th June 2024 - 07:46:57