Welcome Guest ( Log In | Register )

Объявления

* gmail.com упорно продолжает считать почту с нас "unsolicited" и отбивает в том числе и письма активации, поэтому просьба использовать альтернативные почтовые ящики.
------------
* gmail.com continues reject all mail from us as "unsolicited" (activation mails too) therefore please use alternate mail servers.

> 

Здесь релизы с живыми прямыми ссылками на lossless

 
Reply to this topicStart new topic
> Vow Dreams - Fog On The Cold Cemetery [demo] (2007), Death/Black Metal
post May 14 2024, 17:24:19
Post #1

Правь статус, ####!111
**************
Group: Металариец
Posts: 2,062
Releases: 452
On Forums: 5 years 3 months
Thanks: 6389 time(s)
Canada


(IMG:https://metalarea.org/images/audiocovers/2024_May/acov_tid397095_thumb.JPG)

*Artist: Vow Dreams
*Album: Fog On The Cold Cemetery [demo]
*Year: 2007
*Genre: Death/Black Metal
*Country: Italy (IMG:https://metalarea.org/forum/style_images/flags/Italy.png)
*Format: flac
*Size: 165MB

Tracklist:
1. The Living Cemetary part.2 05:25
2. Nightmare in the Night part.2 03:26
3. Souls of the Children (instrumental) 05:35
4. Destroyer of the Creation 10:11
******************************
Total playing time: 24:37



Technical info
(IMG:https://metalarea.org/images/spectrogram/2024_May/2ab595f31663f3e32e927e8fe87f56e3.png)
Input File: 2. Nightmare in the Night part.2.flac
Channels : 2
Sample Rate : 44100
Precision : 16-bit
Duration : 00:03:26.00 = 9084600 samples = 15450 CDDA sectors
File Size : 24.0M
Bit Rate : 932k
Sample Encoding: 16-bit FLAC
Comments :
ARTIST=Vow Dreams
TITLE=2. Nightmare in the Night part.2
ALBUM=Fog On The Cold Cemetery [CD-R] [Demo]
DATE=2007
TRACKNUMBER=02
GENRE=Death Metal, Black Metal
COMMENT=cd rip by canadaspaceman_[heavymetalrarities.com]
BAND=Vow Dreams (Italy)
ALBUMARTIST=Vow Dreams (Italy)
DISCNUMBER=1
TOTALDISCS=1
TOTALTRACKS=4



Register


Thanks:
Go to the top of the page
  Insert nick Quick quote
+Quote Post

Reply to this topicStart new topic
1 User(s) are reading this topic (1 Guests and 0 Anonymous Users)
0 Members:

 



- Lo-Fi Version Support form
Copyrights and abuse reports form
Time is now: 22nd May 2024 - 08:23:21