Welcome Guest ( Log In | Register )

Объявления

* gmail.com упорно продолжает считать почту с нас "unsolicited" и отбивает в том числе и письма активации, поэтому просьба использовать альтернативные почтовые ящики.
------------
* gmail.com continues reject all mail from us as "unsolicited" (activation mails too) therefore please use alternate mail servers.

> 

Здесь релизы с живыми прямыми ссылками на lossless

 
Reply to this topicStart new topic
> Bitterroot - And Thus, There Was No Light [demo] (2024), Death Metal/Deathcore
post May 14 2024, 17:32:59
Post #1

Правь статус, ####!111
**************
Group: Металариец
Posts: 7,552
Releases: 6908
From: Одесса
On Forums: 15 years 11 months
Thanks: 80436 time(s)
Ukraine


(IMG:https://metalarea.org/images/audiocovers/2024_May/acov_tid397096_thumb.jpg)

*Artist: Bitterroot
*Album: And Thus, There Was No Light [demo]
*Year: 2024
*Genre: Death Metal/Deathcore
*Country: United States (IMG:https://metalarea.org/forum/style_images/flags/United%20States.png)
*Format: flac
*Size: 64MB

Tracklist:
1. And Thus, There Was no Light 03:37
2. The Great Distress 03:58
******************************
Total playing time: 7:35



Technical info
(IMG:https://metalarea.org/images/spectrogram/2024_May/4c65bb8c75e514300065f7f8dcab1753.png)
Input File: 02. The Great Distress.flac
Channels : 2
Sample Rate : 44100
Precision : 16-bit
Duration : 00:03:58.67 = 10525190 samples = 17900 CDDA sectors
File Size : 31.9M
Bit Rate : 1.07M
Sample Encoding: 16-bit FLAC
Comments :
ISRC=USHM22437053
Artist=Bitterroot
Organization=Bitterroot
Album=And Thus, There Was No Light (Demo)
Date=2024
Genre=Death Metal | Deathcore
Title=The Great Distress
TrackNumber=2
Album Artist=Bitterroot
ARTISTS=Bitterroot
BARCODE=198500802535
LENGTH=238000
Description=



Register


Thanks:
Go to the top of the page
  Insert nick Quick quote
+Quote Post

Reply to this topicStart new topic
1 User(s) are reading this topic (1 Guests and 0 Anonymous Users)
0 Members:

 



- Lo-Fi Version Support form
Copyrights and abuse reports form
Time is now: 22nd May 2024 - 08:45:55