Welcome Guest ( Log In | Register )

Объявления

* gmail.com упорно продолжает считать почту с нас "unsolicited" и отбивает в том числе и письма активации, поэтому просьба использовать альтернативные почтовые ящики.
------------
* gmail.com continues reject all mail from us as "unsolicited" (activation mails too) therefore please use alternate mail servers.
 
Reply to this topicStart new topic
> Desolation Temple - Desolation Temple (2024), Atmospheric Black Metal
post May 14 2024, 19:56:16
Post #1

Правь статус, ####!111
**************
Group: Металариец
Posts: 36,452
Releases: 27181
From: Г.Харьков
On Forums: 12 years 2 months
Thanks: 592534 time(s)
Ukraine


(IMG:https://metalarea.org/images/audiocovers/2024_May/acov_tid397101_thumb.jpg)

*Artist: Desolation Temple
*Album: Desolation Temple
*Year: 2024
*Genre: Atmospheric Black Metal
*Country: Brazil (IMG:https://metalarea.org/forum/style_images/flags/Brazil.png)
*Format: mp3@CBR320kbps
*Size: 76MB

Tracklist:
1. Through the Darkness Line
2. Diffuse Shadows
3. Parallels Universe
4. Inverted Reality
5. Lost Memories
6. Drifting Souls
7. Eternal Regret...
8. The Creator’s Pride (Amen Corner cover)
******************************
Total playing time: 32:52



Extended info
Rafael Ribeiro Guitars, Bass, Keyboards (2023-present)
See also: Pagan Throne, Continuum Shift, ex-Angelique, ex-Unnature
Rodrigo Garm Vocals, Lyrics (2023-present)
See also: Pagan Throne, ex-Bloodythiirsty


Technical info
(IMG:https://metalarea.org/images/spectrogram/2024_May/c015ea9e04dd422dedc949b8e8453b87.png)
Input File: 07 - Eternal Regret.mp3
Channels : 2
Sample Rate : 44100
Precision : 16-bit
Duration : 00:04:26.00 = 11730600 samples = 19950 CDDA sectors
File Size : 10.8M
Bit Rate : 325k
Sample Encoding: MPEG audio (layer I, II or III)
Comments :
Title=Eternal Regret...
Artist=Desolation Temple
Album=Desolation Temple
Tracknumber=7
Year=2024-05-15
Genre=Metal
Discnumber=1



Register


Go to the top of the page
  Insert nick Quick quote
+Quote Post
post May 16 2024, 08:58:37
Post #2

Правь статус, ####!111
**************
Group: Металариец
Posts: 2,876
Releases: 426
From: Bretagne
On Forums: 16 years 2 months
Thanks: 5383 time(s)
France


modern black metal with atmospheric & melodic aspects
full album youtube preview :
https://youtu.be/VKNVD-TG9CY?si=YAOsvjdstmk_B1XM


Thanks:
(1) andivi,
Go to the top of the page
  Insert nick Quick quote
+Quote Post

Reply to this topicStart new topic
1 User(s) are reading this topic (1 Guests and 0 Anonymous Users)
0 Members:

 



- Lo-Fi Version Support form
Copyrights and abuse reports form
Time is now: 23rd July 2024 - 06:08:37