Welcome Guest ( Log In | Register )

Объявления

* gmail.com упорно продолжает считать почту с нас "unsolicited" и отбивает в том числе и письма активации, поэтому просьба использовать альтернативные почтовые ящики.
------------
* gmail.com continues reject all mail from us as "unsolicited" (activation mails too) therefore please use alternate mail servers.

> Releases Upload / Добавление релизов

Добавить релиз тут / Click here to add release
Рекомендованные обменники / Recommended file shares

 
Reply to this topicStart new topic
> Hell In The Skies - II [ep] (2024), Heavy/Stoner Metal/Rock
post May 14 2024, 20:19:06
Post #1

Правь статус, ####!111
**************
Group: Металариец
Posts: 35,908
Releases: 26755
From: Г.Харьков
On Forums: 12 years 1 week
Thanks: 580390 time(s)
Ukraine


(IMG:https://metalarea.org/images/audiocovers/2024_May/acov_tid397102_thumb.jpg)

*Artist: Hell In The Skies
*Album: II [ep]
*Year: 2024
*Genre: Heavy/Stoner Metal/Rock
*Country: Germany (IMG:https://metalarea.org/forum/style_images/flags/Germany.png)
*Format: mp3@CBR320kbps
*Size: 69MB

Tracklist:
01. Fields of Betrayal
02. Riotous Uproar
03. Vicious Scorn
04. Sad & Done
05. Mental Asylum
06. Prince of Wallachia
******************************
Total playing time: 29:46




Extended info
Garmr Bass (2017-present)
Belial Demon Voice on Prisoner (2017-present)
See also: Xicution, ex-Splitting Society, Mucketation
Baal Drums (2017-present)
Solas Guitars (lead) (2017-present)
Asmoday Vocals (2017-present)
Baka Rhythm Guitar (2018-present)


Technical info
(IMG:https://metalarea.org/images/spectrogram/2024_May/1e9b4e11e7fe97f6b4c796057d91d7cd.png)
Input File: 03 - Vicious Scorn.mp3
Channels : 2
Sample Rate : 44100
Precision : 16-bit
Duration : 00:06:30.00 = 17199000 samples = 29250 CDDA sectors
File Size : 15.7M
Bit Rate : 323k
Sample Encoding: MPEG audio (layer I, II or III)
Comments :
Title=Vicious Scorn
Artist=Hell in the Skies
Album=II
Tracknumber=3
Year=2024-05-15
Genre=Metal
Discnumber=1



Register


Go to the top of the page
  Insert nick Quick quote
+Quote Post

Reply to this topicStart new topic
1 User(s) are reading this topic (1 Guests and 0 Anonymous Users)
0 Members:

 



- Lo-Fi Version Support form
Copyrights and abuse reports form
Time is now: 22nd May 2024 - 10:26:48