Welcome Guest ( Log In | Register )

Объявления

* gmail.com упорно продолжает считать почту с нас "unsolicited" и отбивает в том числе и письма активации, поэтому просьба использовать альтернативные почтовые ящики.
------------
* gmail.com continues reject all mail from us as "unsolicited" (activation mails too) therefore please use alternate mail servers.

> Releases Upload / Добавление релизов

Добавить релиз тут / Click here to add release
Рекомендованные обменники / Recommended file shares

 
Reply to this topicStart new topic
> Elvellon - Ascending In Synergy (2024), Symphonic Metal
post May 14 2024, 23:18:22
Post #1

Правь статус, ####!111
**************
Group: Металариец
Posts: 35,908
Releases: 26755
From: Г.Харьков
On Forums: 12 years 1 week
Thanks: 580364 time(s)
Ukraine


(IMG:https://metalarea.org/images/audiocovers/2024_May/acov_tid397103_thumb.jpg)

*Artist: Elvellon
*Album: Ascending In Synergy
*Year: 2024
*Genre: Symphonic Metal
*Country: Germany (IMG:https://metalarea.org/forum/style_images/flags/Germany.png)
*Format: mp3@CBR320kbps
*Size: 130MB

Tracklist:
1. Unbound 05:51
2. A Vagabond’s Heart 05:21
3. My Forever Endeavour 05:08
4. Ocean of Treason 05:00
5. The Aftermath of Life 05:14
6. Last of Our Kind 05:56
7. Into the Vortex 06:00
8. A Legacy Divine 04:28
9. The Aeon Tree 09:29
10. Epiphany of Mine 04:18
******************************
Total playing time: 56:45




Extended info
Martin Klüners Drums, Percussion
Pascal Pannen Keyboards
Nele Messerschmidt Vocals
Gilbert Gelsdorf Guitars
Jan Runkel Bass



Technical info
(IMG:https://metalarea.org/images/spectrogram/2024_May/c799fe371b34694089b90e7b577e87e0.png)
Input File: 07 Into The Vortex.mp3
Channels : 2
Sample Rate : 44100
Precision : 16-bit
Duration : 00:05:59.96 = 15874412 samples = 26997.3 CDDA sectors
File Size : 14.5M
Bit Rate : 321k
Sample Encoding: MPEG audio (layer I, II or III)
Comments :
Title=Into The Vortex
Artist=Elvellon
Album=Ascending In Synergy
Tracknumber=7/10
Year=2024
Discnumber=1/1



Register


Go to the top of the page
  Insert nick Quick quote
+Quote Post

Reply to this topicStart new topic
1 User(s) are reading this topic (1 Guests and 0 Anonymous Users)
0 Members:

 



- Lo-Fi Version Support form
Copyrights and abuse reports form
Time is now: 22nd May 2024 - 08:27:49