Welcome Guest ( Log In | Register )

Объявления

* gmail.com упорно продолжает считать почту с нас "unsolicited" и отбивает в том числе и письма активации, поэтому просьба использовать альтернативные почтовые ящики.
------------
* gmail.com continues reject all mail from us as "unsolicited" (activation mails too) therefore please use alternate mail servers.

> Releases Upload / Добавление релизов

Добавить релиз тут / Click here to add release
Рекомендованные обменники / Recommended file shares

> Superdeathflame - A Tale Of Disclosure [ep] (2024), Melodic Death Metal
post May 14 2024, 23:51:17
Post #1

Правь статус, ####!111
**************
Group: Металариец
Posts: 36,233
Releases: 27014
From: Г.Харьков
On Forums: 12 years 1 month
Thanks: 587269 time(s)
Ukraine


(IMG:https://metalarea.org/images/audiocovers/2024_May/acov_tid397104_thumb.jpg)

*Artist: Superdeathflame
*Album: A Tale Of Disclosure [ep]
*Year: 2024
*Genre: Melodic Death Metal
*Country: Finland (IMG:https://metalarea.org/forum/style_images/flags/Finland.png)
*Format: mp3@CBR320kbps
*Size: 45MB

Tracklist:
1. Untold Reality 03:41
2. A Tale of Disclosure 03:39
3. Circle of the Weak 04:36
4. Deforming Delusion 03:37
5. Heaven Is a Place on Earth 03:54
******************************
Total playing time: 19:27




Extended info
Marko Tuhkunen Drums
See also: ex-Befrost
Tomi Tilli Guitars
See also: ex-Befrost
Ville Mussalo Guitars
See also: Kaunis Kuolematon, Metallijate, End of Aeon


Technical info
(IMG:https://metalarea.org/images/spectrogram/2024_May/dc816d03a7f8c123a32e5ab82ca87bee.png)
Input File: 05 - Heaven Is a Place on Earth.mp3
Channels : 2
Sample Rate : 44100
Precision : 16-bit
Duration : 00:03:54.00 = 10319400 samples = 17550 CDDA sectors
File Size : 9.51M
Bit Rate : 325k
Sample Encoding: MPEG audio (layer I, II or III)
Comments :
Title=Heaven Is a Place on Earth
Artist=SuperDeathFlame
Album=A Tale of Disclosure
Tracknumber=5
Year=2024-05-15
Genre=Metal
Discnumber=1



Register


Go to the top of the page
  Insert nick Quick quote
+Quote Post
 
Start new topic
Replies (1 - 2)
post May 15 2024, 15:41:59
Post #2

Восемь Литров
********
Group: Металариец
Posts: 889
Releases: 0
On Forums: 17 years 5 months
Thanks: 123 time(s)
Russian Federation


Предыдущий был шикарен и вошел в почетное место в моем плейлисте, посмотрим как этот будет...
Go to the top of the page
  Insert nick Quick quote
+Quote Post
post Jun 17 2024, 19:19:21
Post #3

Перевозчик
**************
Group: Металариец
Posts: 3,635
Releases: 0
On Forums: 15 years 11 months
Thanks: 805 time(s)
Russian Federation


Вполне себе годно.
Go to the top of the page
  Insert nick Quick quote
+Quote Post

Reply to this topicStart new topic
2 User(s) are reading this topic (2 Guests and 0 Anonymous Users)
0 Members:

 



- Lo-Fi Version Support form
Copyrights and abuse reports form
Time is now: 24th June 2024 - 08:23:55