Welcome Guest ( Log In | Register )

Объявления

* gmail.com упорно продолжает считать почту с нас "unsolicited" и отбивает в том числе и письма активации, поэтому просьба использовать альтернативные почтовые ящики.
------------
* gmail.com continues reject all mail from us as "unsolicited" (activation mails too) therefore please use alternate mail servers.

> Releases Upload / Добавление релизов

Добавить релиз тут / Click here to add release
Рекомендованные обменники / Recommended file shares

> Noumenon - Bow Before The Golden Throne (2024), Black/Death Metal (D7)
post May 15 2024, 03:12:48
Post #1

Правь статус, ####!111
**************
Group: Металариец
Posts: 35,908
Releases: 26755
From: Г.Харьков
On Forums: 12 years 1 week
Thanks: 580370 time(s)
Ukraine


(IMG:https://metalarea.org/images/audiocovers/2024_May/acov_tid397105_thumb.jpg)

*Artist: Noumenon
*Album: Bow Before The Golden Throne
*Year: 2024
*Genre: Black/Death Metal
*Country: Turkey (IMG:https://metalarea.org/forum/style_images/flags/Turkey.png)
*Format: mp3@CBR320kbps
*Size: 102MB

Tracklist:
01. Black Sin
02. The Reaper's Ark
03. All Beauties of God
04. Endless Greed
05. Long Live for Horns
06. The Free Fall
07. The Flaming King of the Gold Framed Painting
******************************
Total playing time: 43:38



Technical info
(IMG:https://metalarea.org/images/spectrogram/2024_May/9e3e5c5bb86153c64e25b009a173c7c4.png)
Input File: 07 - The Flaming King of the Gold Framed Painting.mp3
Channels : 2
Sample Rate : 44100
Precision : 16-bit
Duration : 00:05:37.00 = 14861700 samples = 25275 CDDA sectors
File Size : 13.7M
Bit Rate : 326k
Sample Encoding: MPEG audio (layer I, II or III)
Comments :
Title=The Flaming King of the Gold Framed Painting
Artist=Noumenon
Album=Bow Before the Golden Throne
Tracknumber=7
Year=2024-05-12
Genre=Metal
Discnumber=1



Register


Go to the top of the page
  Insert nick Quick quote
+Quote Post
 
Start new topic
Replies (1 - 2)
post May 16 2024, 09:14:48
Post #2

Правь статус, ####!111
**************
Group: Металариец
Posts: 2,519
Releases: 417
From: Bretagne
On Forums: 16 years 5 days
Thanks: 5086 time(s)
France


thanks! down-tempo black/death with some avant-garde & heavy metal influences
full album youtube preview :
https://youtu.be/WTdWd5ev67o?si=10OX-I8NvBBTgyMM
Go to the top of the page
  Insert nick Quick quote
+Quote Post
post May 16 2024, 10:05:58
Post #3

Full-of-Hate
**************
Group: Металариец
Posts: 5,752
Releases: 0
From: Moscow
On Forums: 14 years 10 months
Thanks: 7061 time(s)
Russian Federation


Говно турецкое.
Ну а если без шовинистических нападок - то это просто очень слабый любительский уровень.
Некоторые проекты за пять лет интенсивной работы способны масштабироваться в разы, здесь же, судя по бандкампу, как выкладывал автор низкопробную ссань каждый год, так и останавливаться не собирается. Оценка - ничтожная мертворожденная заурядность. Не стоит слушать и 10 секунд.


Thanks:
Go to the top of the page
  Insert nick Quick quote
+Quote Post

Reply to this topicStart new topic
1 User(s) are reading this topic (1 Guests and 0 Anonymous Users)
0 Members:

 



- Lo-Fi Version Support form
Copyrights and abuse reports form
Time is now: 22nd May 2024 - 09:01:51