Welcome Guest ( Log In | Register )

Объявления

* gmail.com упорно продолжает считать почту с нас "unsolicited" и отбивает в том числе и письма активации, поэтому просьба использовать альтернативные почтовые ящики.
------------
* gmail.com continues reject all mail from us as "unsolicited" (activation mails too) therefore please use alternate mail servers.

> Releases Upload / Добавление релизов

Добавить релиз тут / Click here to add release
Рекомендованные обменники / Recommended file shares

> Stratorus - Far Beyond The North Wind (2024), Pagan/Melodic Black Metal (D4)
post May 15 2024, 04:34:32
Post #1

Правь статус, ####!111
**************
Group: Металариец
Posts: 8,924
Releases: 7160
On Forums: 13 years 6 months
Thanks: 126201 time(s)
Italy


(IMG:https://metalarea.org/images/audiocovers/2024_May/acov_tid397106_thumb.jpg)

*Artist: Stratorus
*Album: Far Beyond The North Wind
*Year: 2024
*Genre: Pagan/Melodic Black Metal
*Country: United States (IMG:https://metalarea.org/forum/style_images/flags/United%20States.png)
*Format: mp3@CBR320kbps
*Size: 111MB

Tracklist:
1.Far Beyond the North Wind 10:22
2.Through the Atlantean Forests 08:35
3.Interlude (Remnants of Atlantis) 02:30
4.Subterranean Crusade 10:17
5.In the Realm of the Smoky God 09:01
6.The White Shores of Agartha 07:06
******************************
Total playing time: 47:51



Technical info
(IMG:https://metalarea.org/images/spectrogram/2024_May/ecfc84a051b9b65d462c2650a930dd55.png)
Input File: 06 The White Shores of Agartha.mp3
Channels : 2
Sample Rate : 44100
Precision : 16-bit
Duration : 00:07:06.74 = 18819102 samples = 32005.3 CDDA sectors
File Size : 17.2M
Bit Rate : 323k
Sample Encoding: MPEG audio (layer I, II or III)
Comments :
Title=The White Shores of Agartha
Artist=Stratorus
Album=Far Beyond the North Wind
Tracknumber=6
Year=2024



Register


Go to the top of the page
  Insert nick Quick quote
+Quote Post
 
Start new topic
Replies (1 - 2)
post May 16 2024, 09:25:23
Post #2

Правь статус, ####!111
**************
Group: Металариец
Posts: 2,519
Releases: 417
From: Bretagne
On Forums: 16 years 5 days
Thanks: 5086 time(s)
France


thanks!! excelent epic & blackened viking metal ! (IMG:style_emoticons/default/dwarf-1.gif)
all songs preview on youtube :
https://www.youtube.com/@voidalchemyofficial4857/videos
Go to the top of the page
  Insert nick Quick quote
+Quote Post
post May 18 2024, 17:38:41
Post #3

Common dweller of hell
**************
Group: Металариец
Posts: 5,393
Releases: 12
From: Dnipro
On Forums: 15 years 10 months
Thanks: 2193 time(s)
Ukraine


Интересная цена альбома на бэндкампе - $2.11 (IMG:style_emoticons/default/15.gif)
Go to the top of the page
  Insert nick Quick quote
+Quote Post

Reply to this topicStart new topic
1 User(s) are reading this topic (1 Guests and 0 Anonymous Users)
0 Members:

 



- Lo-Fi Version Support form
Copyrights and abuse reports form
Time is now: 22nd May 2024 - 09:12:09