Welcome Guest ( Log In | Register )

Объявления

* gmail.com упорно продолжает считать почту с нас "unsolicited" и отбивает в том числе и письма активации, поэтому просьба использовать альтернативные почтовые ящики.
------------
* gmail.com continues reject all mail from us as "unsolicited" (activation mails too) therefore please use alternate mail servers.

> Releases Upload / Добавление релизов

Добавить релиз тут / Click here to add release
Рекомендованные обменники / Recommended file shares

> Caribdys - Libertad (2024), Power Metal
post May 15 2024, 06:14:37
Post #1

Правь статус, ####!111
**************
Group: Металариец
Posts: 9,261
Releases: 7492
On Forums: 13 years 7 months
Thanks: 132461 time(s)
Italy


(IMG:https://metalarea.org/images/audiocovers/2024_May/acov_tid397107_thumb.jpg)

*Artist: Caribdys
*Album: Libertad
*Year: 2024
*Genre: Power Metal
*Country: Mexico (IMG:https://metalarea.org/forum/style_images/flags/Mexico.png)
*Format: mp3@CBR320kbps
*Size: 113MB

Tracklist:
01.El honor de un caballero 03:56
02.Alma de noche 05:09
03.Vampire Killer 05:40
04.Baljhet 04:33
05.Con Valor 04:51
06.Mi luna 05:46
07.El grito de la mandragora 03:22
08.Una segunda oportunidad 04:06
09.Corazon de metal 05:42
10.Libertad 05:25
******************************
Total playing time: 48:30


(IMG:https://metalarea.org/images/youtube.png)

Technical info
(IMG:https://metalarea.org/images/spectrogram/2024_May/d741484dd5e3c738de20d03cc0c67f43.png)
Input File: 7.El grito de la mandragora.mp3
Channels : 2
Sample Rate : 44100
Precision : 16-bit
Duration : 00:03:21.73 = 8896337 samples = 15129.8 CDDA sectors
File Size : 8.41M
Bit Rate : 333k
Sample Encoding: MPEG audio (layer I, II or III)
Comments :
Title=El grito de la mandragora
Artist=Caribdys
Album=Libertad
Tracknumber=7/10
Year=2024
Discnumber=1/1



Register


Go to the top of the page
  Insert nick Quick quote
+Quote Post
 
Start new topic
Replies (1 - 1)
post May 15 2024, 11:42:01
Post #2

Литр
*
Group: Подсевший
Posts: 85
Releases: 0
From: Barcelona - Spain
On Forums: 1 year 5 months
Thanks: 10 time(s)
Spain


Line-Up:

Bruno Kane de Loera: Drums (Soul Skinner, ex-Forgotten Realms, ex-Panicomio, ex-TurboRocker)
Axis Ferum: Guitars (ex-Soul Skinner, ex-Mandra, ex-Nameless)
Lord Rich CM: Guitars
Dr. Asphyxia: Keyboards
Magnus Palacios: Vocals (Forgotten Realms, Disenteria, Gerd)
Alberto Kureru: Bass (ex-Forgotten Realms, ex-sachiel in Darkness (live))


Thanks:
(1) boby9052,
Go to the top of the page
  Insert nick Quick quote
+Quote Post

Reply to this topicStart new topic
1 User(s) are reading this topic (1 Guests and 0 Anonymous Users)
0 Members:

 



- Lo-Fi Version Support form
Copyrights and abuse reports form
Time is now: 14th July 2024 - 15:51:58