Welcome Guest ( Log In | Register )

Объявления

* gmail.com упорно продолжает считать почту с нас "unsolicited" и отбивает в том числе и письма активации, поэтому просьба использовать альтернативные почтовые ящики.
------------
* gmail.com continues reject all mail from us as "unsolicited" (activation mails too) therefore please use alternate mail servers.

> Releases Upload / Добавление релизов

Добавить релиз тут / Click here to add release
Рекомендованные обменники / Recommended file shares

> Morphine - Exogenous [ep] (2022), Atmospheric/Depressive Black Metal (D11)
post May 15 2024, 08:25:38
Post #1

Правь статус, ####!111
**************
Group: Металариец
Posts: 2,519
Releases: 417
From: Bretagne
On Forums: 16 years 5 days
Thanks: 5086 time(s)
France


(IMG:https://metalarea.org/images/audiocovers/2024_May/acov_tid397108_thumb.jpg)

*Artist: Morphine
*Album: Exogenous [ep]
*Year: 2022
*Genre: Atmospheric/Depressive Black Metal
*Country: United Kingdom (IMG:https://metalarea.org/forum/style_images/flags/United%20Kingdom.png)
*Format: mp3@CBR320kbps
*Size: 44MB

Tracklist:
1. Exogenous I 04:59
2. Exogenous II 04:59
3. Exogenous III 03:52
4. Exogenous IV 02:32
5. Exogenous V 02:35
******************************
Total playing time: 18:57



Extended info
LGBT DSBM.
Currently on hiatus: 2018 - 2024
"Name your price" on bandcamp


Technical info
(IMG:https://metalarea.org/images/spectrogram/2024_May/d4709bc03749d290613eab9e99678a5d.png)
Input File: Morphine - Exogenous (EP) - 04 Exogenous IV.mp3
Channels : 2
Sample Rate : 44100
Precision : 16-bit
Duration : 00:02:32.07 = 6706155 samples = 11405 CDDA sectors
File Size : 6.17M
Bit Rate : 325k
Sample Encoding: MPEG audio (layer I, II or III)
Comments :
Title=Exogenous IV
Artist=Morphine
Album=Exogenous (EP)
Tracknumber=4
Year=2022



Register


Go to the top of the page
  Insert nick Quick quote
+Quote Post
 
Start new topic
Replies (1 - 1)
post May 15 2024, 12:53:32
Post #2

Serpentvm
******
Group: Металариец
Posts: 504
Releases: 6
From: Ural
On Forums: 16 years 1 month
Thanks: 1010 time(s)
Russian Federation


LGBT DSBM (IMG:style_emoticons/default/normal_Homerdisgust3.png)


Thanks:
(1) Ildjarn,
Go to the top of the page
  Insert nick Quick quote
+Quote Post

Reply to this topicStart new topic
1 User(s) are reading this topic (1 Guests and 0 Anonymous Users)
0 Members:

 



- Lo-Fi Version Support form
Copyrights and abuse reports form
Time is now: 22nd May 2024 - 09:35:56