Welcome Guest ( Log In | Register )

Объявления

* gmail.com упорно продолжает считать почту с нас "unsolicited" и отбивает в том числе и письма активации, поэтому просьба использовать альтернативные почтовые ящики.
------------
* gmail.com continues reject all mail from us as "unsolicited" (activation mails too) therefore please use alternate mail servers.

> Releases Upload / Добавление релизов

Добавить релиз тут / Click here to add release
Рекомендованные обменники / Recommended file shares

> Apostate - Elegy Of Phantom Pain (2024), Atmospheric Black Metal/Dungeon Synth (D13)
post May 15 2024, 12:16:09
Post #1

Правь статус, 616
**************
Group: Металариец
Posts: 10,741
Releases: 8746
From: 55°35’N 38°08’E
On Forums: 15 years 10 months
Thanks: 155619 time(s)
Russian Federation


(IMG:https://metalarea.org/images/audiocovers/2024_May/acov_tid397112_thumb.jpg)

*Artist: Apostate
*Album: Elegy Of Phantom Pain
*Year: 2024
*Genre: Atmospheric Black Metal/Dungeon Synth
*Country: Italy (IMG:https://metalarea.org/forum/style_images/flags/Italy.png)
*Format: mp3@CBR320kbps
*Size: 100MB

Tracklist:
1.The Dusk 03:46
2.Wailing of Archaic Forest 09:10
3.Years Consumed in Exile 08:31
4.A Pact Signed by Poison 07:20
5.Elegy of Phantom Pain 10:24
6.The Dawn 03:55
******************************
Total playing time: 43:06



Extended info
Unukalhai - Vocals, Lyrics
(Valadier)
Blight - Guitars, Programming
(Valadier)
Drunken Bible - Bass


Technical info
(IMG:https://metalarea.org/images/spectrogram/2024_May/f115b2bfade12f931d93635eadf81b04.png)
Input File: 03 Years Consumed in Exile.mp3
Channels : 2
Sample Rate : 44100
Precision : 16-bit
Duration : 00:08:31.59 = 22560987 samples = 38369 CDDA sectors
File Size : 20.6M
Bit Rate : 322k
Sample Encoding: MPEG audio (layer I, II or III)
Comments :
Title=Years Consumed in Exile
Artist=Apostate
Album=Elegy of Phantom Pain
Tracknumber=3/6
Year=2024
Genre=Black Metal
Discnumber=1/1



Register


Go to the top of the page
  Insert nick Quick quote
+Quote Post
 
Start new topic
Replies (1 - 1)
post May 15 2024, 12:50:56
Post #2

Правь статус, 616
**************
Group: Металариец
Posts: 10,741
Releases: 8746
From: 55°35’N 38°08’E
On Forums: 15 years 10 months
Thanks: 155619 time(s)
Russian Federation


FLAC

Register


Go to the top of the page
  Insert nick Quick quote
+Quote Post

Reply to this topicStart new topic
1 User(s) are reading this topic (1 Guests and 0 Anonymous Users)
0 Members:

 



- Lo-Fi Version Support form
Copyrights and abuse reports form
Time is now: 22nd May 2024 - 09:27:59