Welcome Guest ( Log In | Register )

Объявления

* gmail.com упорно продолжает считать почту с нас "unsolicited" и отбивает в том числе и письма активации, поэтому просьба использовать альтернативные почтовые ящики.
------------
* gmail.com continues reject all mail from us as "unsolicited" (activation mails too) therefore please use alternate mail servers.

> Releases Upload / Добавление релизов

Добавить релиз тут / Click here to add release
Рекомендованные обменники / Recommended file shares

 
Reply to this topicStart new topic
> Адреналин Б - Антимир (2024), Heavy Metal/Hard Rock
post May 15 2024, 12:59:50
Post #1

Правь статус, ####!111
**************
Group: Металариец
Posts: 8,924
Releases: 7160
On Forums: 13 years 6 months
Thanks: 126207 time(s)
Italy


(IMG:https://metalarea.org/images/audiocovers/2024_May/acov_tid397113_thumb.jpg)

*Artist: Адреналин Б
*Album: Антимир
*Year: 2024
*Genre: Heavy Metal/Hard Rock
*Country: Russian Federation (IMG:https://metalarea.org/forum/style_images/flags/Russian%20Federation.png)
*Format: mp3@CBR320kbps
*Size: 97MB

Tracklist:
1.Кто за нас 04:02
2.Антимир 03:50
3.Взгляд 04:27
4.Время 04:00
5.Ящик Пандоры 04:38
6.Адреналин 03:34
7.Талисман 05:17
8.Чёрный город 03:59
9.Два мира 03:55
10.На тёмной стороне 03:46
******************************
Total playing time: 41:28

(IMG:https://metalarea.org/images/youtube.png)
Preview 2

Technical info
(IMG:https://metalarea.org/images/spectrogram/2024_May/f31189b0732f29c3e99c45953d2e0217.png)
Input File: 3.Взгляд.mp3
Channels : 2
Sample Rate : 44100
Precision : 16-bit
Duration : 00:04:27.02 = 11775362 samples = 20026.1 CDDA sectors
File Size : 10.9M
Bit Rate : 328k
Sample Encoding: MPEG audio (layer I, II or III)
Comments :
Title=Взгляд
Artist=Адреналин Б
Album=Антимир
Tracknumber=3/10
Year=2024
Discnumber=1/1



Register


Go to the top of the page
  Insert nick Quick quote
+Quote Post

Reply to this topicStart new topic
1 User(s) are reading this topic (1 Guests and 0 Anonymous Users)
0 Members:

 



- Lo-Fi Version Support form
Copyrights and abuse reports form
Time is now: 22nd May 2024 - 09:41:24