Welcome Guest ( Log In | Register )

Объявления

* gmail.com упорно продолжает считать почту с нас "unsolicited" и отбивает в том числе и письма активации, поэтому просьба использовать альтернативные почтовые ящики.
------------
* gmail.com continues reject all mail from us as "unsolicited" (activation mails too) therefore please use alternate mail servers.

> Releases Upload / Добавление релизов

Добавить релиз тут / Click here to add release
Рекомендованные обменники / Recommended file shares

> Deathspell - The Third Renaissance (2024), Melodic/Blackened Death Metal
post May 15 2024, 13:02:18
Post #1

Правь статус, ####!111
**************
Group: Металариец
Posts: 8,924
Releases: 7162
On Forums: 13 years 6 months
Thanks: 126212 time(s)
Italy


(IMG:https://metalarea.org/images/audiocovers/2024_May/acov_tid397114_thumb.jpg)

*Artist: Deathspell
*Album: The Third Renaissance
*Year: 2024
*Genre: Melodic/Blackened Death Metal
*Country: Uruguay (IMG:https://metalarea.org/forum/style_images/flags/Uruguay.png)
*Format: mp3@CBR320kbps
*Size: 108MB

Tracklist:
1.Opening the Gates 01:24
2.Hell in My Sights 03:28
3.Deathroot 03:29
4.Spectacle of Decay 03:54
5.Lust's Grasp 03:40
6.Whispers of the Hollow 04:28
7.Drained Shadows 03:07
8.Soul Evisceration 02:50
9.Eclipse of Despair 05:38
10.Your Maiden Is Floating off Bed 03:17
11.Forced Waltz of the Undead 03:06
12.Castle of Horrors 03:57
13.Phantoms of Desolation 03:28
******************************
Total playing time: 45:46



Technical info
(IMG:https://metalarea.org/images/spectrogram/2024_May/d696f396af7ce6e8b8dd2a7ef28e1ca7.png)
Input File: 5.Lust\'s grasp.mp3
Channels : 2
Sample Rate : 44100
Precision : 16-bit
Duration : 00:03:40.93 = 9743101 samples = 16569.9 CDDA sectors
File Size : 9.10M
Bit Rate : 330k
Sample Encoding: MPEG audio (layer I, II or III)
Comments :
Title=Lust's grasp
Artist=Deathspell
Album=Deathspell - The third renaissance
Tracknumber=5/13
Year=2024
Discnumber=1/1



Register


Go to the top of the page
  Insert nick Quick quote
+Quote Post
 
Start new topic
Replies (1 - 2)
post May 15 2024, 13:49:31
Post #2

Full-of-Hate
**************
Group: Металариец
Posts: 5,752
Releases: 0
From: Moscow
On Forums: 14 years 10 months
Thanks: 7061 time(s)
Russian Federation


Буду первым, кто очень оригинально и своевременно пошутит об отсутствии слова Omega в названии.


Thanks:
Go to the top of the page
  Insert nick Quick quote
+Quote Post
post May 15 2024, 15:51:15
Post #3

Четыре Литра
****
Group: Металариец
Posts: 341
Releases: 0
On Forums: 12 years 6 months
Thanks: 19 time(s)
Belarus


Опередил меня! Только я хотел спросить не Омега ли они, поменявшие название...)
Go to the top of the page
  Insert nick Quick quote
+Quote Post

Reply to this topicStart new topic
1 User(s) are reading this topic (1 Guests and 0 Anonymous Users)
0 Members:

 



- Lo-Fi Version Support form
Copyrights and abuse reports form
Time is now: 22nd May 2024 - 09:55:20